<?xml version="1.0" standalone="no"?>
<!DOCTYPE svg PUBLIC "-//W3C//DTD SVG 1.1//EN" "http://www.w3.org/Graphics/SVG/1.1/DTD/svg11.dtd" >
<svg>
<metadata>
Created by FontForge 20120731 at Thu Dec 26 16:08:35 2013
 By World Wide Web Server
Copyright (c) 2008 - 2009 Linotype GmbH, www.linotype.com. All rights reserved. This font software may not be reproduced, modified, disclosed or transferred without the express written approval of Linotype GmbH.
</metadata>
<defs>
<font id="DINNextLTPro-Light" horiz-adv-x="532" >
  <font-face 
    font-family="DIN Next LT Pro"
    font-weight="300"
    font-stretch="normal"
    units-per-em="1000"
    panose-1="2 11 3 3 2 2 3 5 2 3"
    ascent="750"
    descent="-250"
    x-height="477"
    cap-height="680"
    bbox="-146.177 -213 985 914"
    underline-thickness="50"
    underline-position="-50"
    stemh="43"
    stemv="54"
    unicode-range="U+0020-FB04"
  />
<missing-glyph horiz-adv-x="470" 
d="M0 10v660c0 6 4 10 10 10h450c6 0 10 -4 10 -10v-660c0 -6 -4 -10 -10 -10h-450c-6 0 -10 4 -10 10zM39 43c0 -4 2 -6 6 -6h380c4 0 6 2 6 6v594c0 4 -2 6 -6 6h-380c-4 0 -6 -2 -6 -6v-594zM215 224c-6 0 -10 4 -10 10v24c0 30 6 47 22 67l37 48c30 36 37 53 37 80
c0 42 -30 70 -72 70c-40 0 -67 -22 -77 -67c-1 -6 -5 -9 -12 -8l-21 4c-6 1 -9 5 -8 11c11 58 55 99 119 99c68 0 112 -48 112 -109c0 -38 -11 -62 -38 -94l-37 -48c-17 -21 -20 -31 -20 -55v-22c0 -6 -4 -10 -10 -10h-22zM200 123v39c0 6 4 10 10 10h31c6 0 10 -4 10 -10
v-39c0 -6 -4 -10 -10 -10h-31c-6 0 -10 4 -10 10z" />
    <glyph glyph-name="napostrophe" unicode="&#x22;n" horiz-adv-x="541" 
d="M40 535c-6 0 -9 4 -9 10v125c0 6 4 10 10 10h37c6 0 10 -4 10 -10v-48c0 -9 -1 -13 -5 -21l-32 -57c-3 -6 -6 -9 -11 -9zM445 0h-34c-6 0 -10 4 -10 10v282c0 95 -42 143 -125 143c-73 0 -130 -50 -130 -133v-292c0 -6 -4 -10 -10 -10h-34c-6 0 -10 4 -10 10v457
c0 6 4 10 10 10h34c6 0 10 -4 10 -10v-57h1c24 47 74 77 141 77c106 0 167 -66 167 -182v-295c0 -6 -4 -10 -10 -10z" />
    <glyph glyph-name="IJ" unicode="IJ" horiz-adv-x="719" 
d="M94 10v660c0 6 4 10 10 10h37c6 0 10 -4 10 -10v-660c0 -6 -4 -10 -10 -10h-37c-6 0 -10 4 -10 10zM285 46c-4 4 -5 10 -1 14l27 25c4 4 10 4 15 0c24 -20 64 -41 107 -41c86 0 141 47 141 160v466c0 6 4 10 10 10h37c6 0 10 -4 10 -10v-466c0 -146 -78 -214 -199 -214
c-59 0 -115 25 -147 56z" />
    <glyph glyph-name="ij" unicode="ij" horiz-adv-x="476" 
d="M141 604h-44c-6 0 -10 4 -10 10v56c0 6 4 10 10 10h44c6 0 10 -4 10 -10v-56c0 -6 -4 -10 -10 -10zM136 0h-34c-6 0 -10 4 -10 10v457c0 6 4 10 10 10h34c6 0 10 -4 10 -10v-457c0 -6 -4 -10 -10 -10zM379 604h-44c-6 0 -10 4 -10 10v56c0 6 4 10 10 10h44
c6 0 10 -4 10 -10v-56c0 -6 -4 -10 -10 -10zM261 -180h-11c-6 0 -10 4 -10 10v32c0 6 4 10 10 10h9c54 0 71 14 71 73v522c0 6 4 10 10 10h34c6 0 10 -4 10 -10v-521c0 -93 -35 -126 -123 -126z" />
    <glyph glyph-name="fi" unicode="fi" horiz-adv-x="546" 
d="M152 0h-34c-6 0 -10 4 -10 10v413c0 4 -2 6 -6 6h-51c-6 0 -10 4 -10 10v28c0 6 4 10 10 10h51c4 0 6 2 6 6v51c0 114 36 146 133 146h28c6 0 10 -4 10 -10v-32c0 -6 -4 -10 -10 -10h-21c-73 0 -86 -15 -86 -87v-58c0 -4 2 -6 6 -6h101c6 0 10 -4 10 -10v-28
c0 -6 -4 -10 -10 -10h-101c-4 0 -6 -2 -6 -6v-413c0 -6 -4 -10 -10 -10zM449 604h-44c-6 0 -10 4 -10 10v56c0 6 4 10 10 10h44c6 0 10 -4 10 -10v-56c0 -6 -4 -10 -10 -10zM444 0h-34c-6 0 -10 4 -10 10v457c0 6 4 10 10 10h34c6 0 10 -4 10 -10v-457c0 -6 -4 -10 -10 -10z
" />
    <glyph glyph-name="fl" unicode="fl" horiz-adv-x="570" 
d="M152 0h-34c-6 0 -10 4 -10 10v413c0 4 -2 6 -6 6h-51c-6 0 -10 4 -10 10v28c0 6 4 10 10 10h51c4 0 6 2 6 6v51c0 114 36 146 133 146h28c6 0 10 -4 10 -10v-32c0 -6 -4 -10 -10 -10h-21c-73 0 -86 -15 -86 -87v-58c0 -4 2 -6 6 -6h101c6 0 10 -4 10 -10v-28
c0 -6 -4 -10 -10 -10h-101c-4 0 -6 -2 -6 -6v-413c0 -6 -4 -10 -10 -10zM521 -3h-23c-72 0 -99 33 -99 112v561c0 6 4 10 10 10h34c6 0 10 -4 10 -10v-559c0 -47 15 -62 51 -62h17c6 0 10 -4 10 -10v-32c0 -6 -4 -10 -10 -10z" />
    <glyph glyph-name="f_f" unicode="ff" horiz-adv-x="616" 
d="M152 0h-34c-6 0 -10 4 -10 10v413c0 4 -2 6 -6 6h-51c-6 0 -10 4 -10 10v28c0 6 4 10 10 10h51c4 0 6 2 6 6v51c0 114 36 146 133 146h28c6 0 10 -4 10 -10v-32c0 -6 -4 -10 -10 -10h-21c-73 0 -86 -15 -86 -87v-58c0 -4 2 -6 6 -6h101c6 0 10 -4 10 -10v-28
c0 -6 -4 -10 -10 -10h-101c-4 0 -6 -2 -6 -6v-413c0 -6 -4 -10 -10 -10zM460 0h-34c-6 0 -10 4 -10 10v413c0 4 -2 6 -6 6h-51c-6 0 -10 4 -10 10v28c0 6 4 10 10 10h51c4 0 6 2 6 6v51c0 114 36 146 133 146h28c6 0 10 -4 10 -10v-32c0 -6 -4 -10 -10 -10h-21
c-73 0 -86 -15 -86 -87v-58c0 -4 2 -6 6 -6h101c6 0 10 -4 10 -10v-28c0 -6 -4 -10 -10 -10h-101c-4 0 -6 -2 -6 -6v-413c0 -6 -4 -10 -10 -10z" />
    <glyph glyph-name="f_f_i" unicode="ffi" horiz-adv-x="854" 
d="M152 0h-34c-6 0 -10 4 -10 10v413c0 4 -2 6 -6 6h-51c-6 0 -10 4 -10 10v28c0 6 4 10 10 10h51c4 0 6 2 6 6v51c0 114 36 146 133 146h28c6 0 10 -4 10 -10v-32c0 -6 -4 -10 -10 -10h-21c-73 0 -86 -15 -86 -87v-58c0 -4 2 -6 6 -6h101c6 0 10 -4 10 -10v-28
c0 -6 -4 -10 -10 -10h-101c-4 0 -6 -2 -6 -6v-413c0 -6 -4 -10 -10 -10zM460 0h-34c-6 0 -10 4 -10 10v413c0 4 -2 6 -6 6h-51c-6 0 -10 4 -10 10v28c0 6 4 10 10 10h51c4 0 6 2 6 6v51c0 114 36 146 133 146h28c6 0 10 -4 10 -10v-32c0 -6 -4 -10 -10 -10h-21
c-73 0 -86 -15 -86 -87v-58c0 -4 2 -6 6 -6h101c6 0 10 -4 10 -10v-28c0 -6 -4 -10 -10 -10h-101c-4 0 -6 -2 -6 -6v-413c0 -6 -4 -10 -10 -10zM757 604h-44c-6 0 -10 4 -10 10v56c0 6 4 10 10 10h44c6 0 10 -4 10 -10v-56c0 -6 -4 -10 -10 -10zM752 0h-34
c-6 0 -10 4 -10 10v457c0 6 4 10 10 10h34c6 0 10 -4 10 -10v-457c0 -6 -4 -10 -10 -10z" />
    <glyph glyph-name="f_f_l" unicode="ffl" horiz-adv-x="878" 
d="M152 0h-34c-6 0 -10 4 -10 10v413c0 4 -2 6 -6 6h-51c-6 0 -10 4 -10 10v28c0 6 4 10 10 10h51c4 0 6 2 6 6v51c0 114 36 146 133 146h28c6 0 10 -4 10 -10v-32c0 -6 -4 -10 -10 -10h-21c-73 0 -86 -15 -86 -87v-58c0 -4 2 -6 6 -6h101c6 0 10 -4 10 -10v-28
c0 -6 -4 -10 -10 -10h-101c-4 0 -6 -2 -6 -6v-413c0 -6 -4 -10 -10 -10zM460 0h-34c-6 0 -10 4 -10 10v413c0 4 -2 6 -6 6h-51c-6 0 -10 4 -10 10v28c0 6 4 10 10 10h51c4 0 6 2 6 6v51c0 114 36 146 133 146h28c6 0 10 -4 10 -10v-32c0 -6 -4 -10 -10 -10h-21
c-73 0 -86 -15 -86 -87v-58c0 -4 2 -6 6 -6h101c6 0 10 -4 10 -10v-28c0 -6 -4 -10 -10 -10h-101c-4 0 -6 -2 -6 -6v-413c0 -6 -4 -10 -10 -10zM829 -3h-23c-72 0 -99 33 -99 112v561c0 6 4 10 10 10h34c6 0 10 -4 10 -10v-559c0 -47 15 -62 51 -62h17c6 0 10 -4 10 -10v-32
c0 -6 -4 -10 -10 -10z" />
    <glyph glyph-name=".notdef" horiz-adv-x="470" 
d="M0 10v660c0 6 4 10 10 10h450c6 0 10 -4 10 -10v-660c0 -6 -4 -10 -10 -10h-450c-6 0 -10 4 -10 10zM39 43c0 -4 2 -6 6 -6h380c4 0 6 2 6 6v594c0 4 -2 6 -6 6h-380c-4 0 -6 -2 -6 -6v-594zM215 224c-6 0 -10 4 -10 10v24c0 30 6 47 22 67l37 48c30 36 37 53 37 80
c0 42 -30 70 -72 70c-40 0 -67 -22 -77 -67c-1 -6 -5 -9 -12 -8l-21 4c-6 1 -9 5 -8 11c11 58 55 99 119 99c68 0 112 -48 112 -109c0 -38 -11 -62 -38 -94l-37 -48c-17 -21 -20 -31 -20 -55v-22c0 -6 -4 -10 -10 -10h-22zM200 123v39c0 6 4 10 10 10h31c6 0 10 -4 10 -10
v-39c0 -6 -4 -10 -10 -10h-31c-6 0 -10 4 -10 10z" />
    <glyph glyph-name=".null" horiz-adv-x="500" 
 />
    <glyph glyph-name="CR" horiz-adv-x="0" 
 />
    <glyph glyph-name="space" unicode=" " horiz-adv-x="246" 
 />
    <glyph glyph-name="exclam" unicode="!" horiz-adv-x="266" 
d="M122 177c-6 0 -10 4 -10 10l-8 483c0 6 4 10 10 10h39c6 0 10 -4 10 -10l-8 -483c0 -6 -4 -10 -10 -10h-23zM98 10v67c0 6 4 10 10 10h50c6 0 10 -4 10 -10v-67c0 -6 -4 -10 -10 -10h-50c-6 0 -10 4 -10 10z" />
    <glyph glyph-name="quotedbl" unicode="&#x22;" horiz-adv-x="314" 
d="M204 520c-6 0 -10 4 -10 10v140c0 6 4 10 10 10h26c6 0 10 -4 10 -10v-140c0 -6 -4 -10 -10 -10h-26zM84 520c-6 0 -10 4 -10 10v140c0 6 4 10 10 10h26c6 0 10 -4 10 -10v-140c0 -6 -4 -10 -10 -10h-26z" />
    <glyph glyph-name="numbersign" unicode="#" horiz-adv-x="518" 
d="M89 10l28 209h-80c-6 0 -10 4 -10 10v24c0 6 4 10 10 10h86l23 169h-84c-6 0 -10 4 -10 10v25c0 6 4 10 10 10h90l27 193c1 6 4 10 11 10h27c7 0 10 -4 9 -10l-27 -193h150l27 193c1 6 4 10 11 10h27c7 0 10 -4 9 -10l-27 -193h85c6 0 10 -4 10 -10v-25
c0 -6 -4 -10 -10 -10h-91l-23 -169h90c6 0 10 -4 10 -10v-24c0 -6 -4 -10 -10 -10h-96l-28 -209c-1 -6 -4 -10 -11 -10h-27c-7 0 -10 4 -9 10l28 209h-150l-28 -209c-1 -6 -4 -10 -11 -10h-27c-7 0 -10 4 -9 10zM170 263h150l23 169h-150z" />
    <glyph glyph-name="dollar" unicode="$" 
d="M65 50c-4 3 -5 10 -1 14l21 28c4 5 9 4 14 1c39 -25 90 -48 153 -51v277c-120 19 -175 87 -175 181c0 109 72 181 175 189v52c0 6 4 10 10 10h19c6 0 10 -4 10 -10v-52c56 -3 106 -21 145 -45c5 -3 7 -9 3 -14l-17 -27c-4 -5 -9 -6 -14 -3c-41 22 -76 34 -117 37v-268
c123 -18 181 -83 181 -182c0 -108 -66 -185 -181 -195v-53c0 -6 -4 -10 -10 -10h-19c-6 0 -10 4 -10 10v51c-74 2 -142 28 -187 60zM252 374v263c-74 -7 -122 -58 -122 -132c0 -67 30 -113 122 -131zM291 43c79 9 128 59 128 141c0 68 -33 114 -128 129v-270z" />
    <glyph glyph-name="percent" unicode="%" horiz-adv-x="770" 
d="M164 0l394 680c4 7 7 10 14 10h27c6 0 9 -4 6 -10l-394 -680c-4 -7 -7 -10 -14 -10h-27c-6 0 -9 4 -6 10zM205 330c-55 0 -94 28 -109 74c-4 16 -8 31 -8 105s4 89 8 105c15 46 54 74 109 74c54 0 93 -28 108 -74c4 -16 8 -31 8 -105s-4 -89 -8 -105
c-15 -46 -54 -74 -108 -74zM205 371c32 0 55 14 64 43c5 13 7 24 7 95s-2 82 -7 95c-9 29 -32 43 -64 43c-33 0 -56 -14 -65 -43c-5 -13 -7 -24 -7 -95s2 -82 7 -95c9 -29 32 -43 65 -43zM458 66c-5 15 -8 30 -8 105c0 74 3 89 8 105c15 46 54 74 108 74s94 -28 108 -74
c5 -16 8 -31 8 -105c0 -75 -3 -90 -8 -105c-14 -46 -54 -74 -108 -74s-93 28 -108 74zM501 76c10 -29 33 -43 65 -43s55 14 65 43c4 13 7 23 7 95c0 71 -3 82 -7 94c-10 29 -33 43 -65 43s-55 -14 -65 -43c-4 -12 -7 -23 -7 -94c0 -72 3 -82 7 -95z" />
    <glyph glyph-name="ampersand" unicode="&#x26;" horiz-adv-x="618" 
d="M76 162c0 78 49 144 141 218c-68 88 -93 126 -93 173c0 80 62 137 145 137c85 0 143 -59 143 -136c0 -59 -27 -103 -124 -182l152 -197l71 89c4 5 9 6 14 2l21 -18c6 -4 6 -9 2 -14l-78 -99l47 -61c15 -19 24 -22 39 -22h14c6 0 10 -4 10 -10v-32c0 -6 -4 -10 -10 -10
h-21c-34 0 -50 9 -73 40l-40 53c-61 -70 -115 -103 -186 -103c-108 0 -174 70 -174 172zM257 413c90 72 104 102 104 141c0 50 -39 86 -92 86c-54 0 -92 -36 -92 -86c0 -34 16 -57 80 -141zM128 164c0 -73 46 -124 123 -124c57 0 101 30 155 93l-159 207
c-76 -62 -119 -113 -119 -176z" />
    <glyph glyph-name="quotesingle" unicode="'" horiz-adv-x="194" 
d="M84 520c-6 0 -10 4 -10 10v140c0 6 4 10 10 10h26c6 0 10 -4 10 -10v-140c0 -6 -4 -10 -10 -10h-26z" />
    <glyph glyph-name="parenleft" unicode="(" horiz-adv-x="276" 
d="M185 -74c-71 121 -110 265 -110 402s39 282 110 402c4 6 8 10 15 10h20c6 0 10 -4 7 -10c-62 -120 -99 -265 -99 -402s38 -283 99 -402c3 -6 -1 -10 -7 -10h-20c-7 0 -11 4 -15 10z" />
    <glyph glyph-name="parenright" unicode=")" horiz-adv-x="276" 
d="M49 -74c62 119 99 265 99 402s-37 282 -99 402c-3 6 1 10 7 10h21c6 0 10 -4 14 -10c71 -120 110 -265 110 -402s-39 -281 -110 -402c-4 -6 -8 -10 -14 -10h-21c-6 0 -10 4 -7 10z" />
    <glyph glyph-name="asterisk" unicode="*" horiz-adv-x="349" 
d="M166 402c-6 0 -10 4 -10 10v96l-84 -48c-5 -3 -11 -1 -14 4l-8 15c-3 5 -2 11 4 14l83 48l-83 48c-6 3 -7 9 -4 14l8 15c3 5 9 7 14 4l84 -49v97c0 6 4 10 10 10h17c6 0 10 -4 10 -10v-97l84 49c5 3 11 1 14 -4l8 -15c3 -5 2 -11 -4 -14l-84 -48l84 -48c6 -3 7 -9 4 -14
l-8 -15c-3 -5 -9 -7 -14 -4l-84 49v-97c0 -6 -4 -10 -10 -10h-17z" />
    <glyph glyph-name="plus" unicode="+" 
d="M240 85v160c0 4 -2 6 -6 6h-158c-6 0 -10 4 -10 10v30c0 6 4 10 10 10h158c4 0 6 2 6 6v160c0 6 4 10 10 10h32c6 0 10 -4 10 -10v-160c0 -4 2 -6 6 -6h158c6 0 10 -4 10 -10v-30c0 -6 -4 -10 -10 -10h-158c-4 0 -6 -2 -6 -6v-160c0 -6 -4 -10 -10 -10h-32
c-6 0 -10 4 -10 10z" />
    <glyph glyph-name="comma" unicode="," horiz-adv-x="213" 
d="M75 77c0 6 4 10 10 10h43c6 0 10 -4 10 -10v-75c0 -10 -1 -14 -5 -22l-39 -77c-3 -6 -7 -8 -12 -8s-7 3 -7 9v173z" />
    <glyph glyph-name="hyphen" unicode="-" horiz-adv-x="374" 
d="M59 241c-6 0 -10 4 -10 10v31c0 6 4 10 10 10h256c6 0 10 -4 10 -10v-31c0 -6 -4 -10 -10 -10h-256z" />
    <glyph glyph-name="period" unicode="." horiz-adv-x="219" 
d="M75 10v67c0 6 4 10 10 10h49c6 0 10 -4 10 -10v-67c0 -6 -4 -10 -10 -10h-49c-6 0 -10 4 -10 10z" />
    <glyph glyph-name="slash" unicode="/" horiz-adv-x="407" 
d="M68 0l221 680c2 7 6 10 13 10h30c6 0 9 -4 7 -10l-221 -680c-2 -7 -6 -10 -13 -10h-30c-6 0 -9 4 -7 10z" />
    <glyph glyph-name="zero" unicode="0" 
d="M91 112c-8 24 -15 65 -15 228s7 204 15 228c26 79 89 122 175 122s149 -43 175 -122c8 -24 15 -65 15 -228s-7 -204 -15 -228c-26 -79 -89 -122 -175 -122s-149 43 -175 122zM144 124c19 -57 62 -83 122 -83s103 26 122 83c7 22 14 59 14 216s-7 194 -14 216
c-19 57 -62 83 -122 83s-103 -26 -122 -83c-7 -22 -14 -59 -14 -216s7 -194 14 -216z" />
    <glyph glyph-name="one" unicode="1" 
d="M257 10v597h-2l-123 -87c-5 -4 -11 -2 -11 6v42c0 7 2 11 7 15l126 91c5 4 9 6 15 6h32c6 0 10 -4 10 -10v-660c0 -6 -4 -10 -10 -10h-34c-6 0 -10 4 -10 10z" />
    <glyph glyph-name="two" unicode="2" 
d="M83 10v26c0 6 1 9 4 13l251 329c34 44 56 87 56 133c0 74 -53 127 -130 127c-75 0 -118 -46 -130 -117c-1 -6 -5 -9 -12 -8l-31 8c-6 1 -9 5 -8 11c11 83 73 158 182 158c110 0 183 -75 183 -179c0 -60 -26 -110 -69 -166l-224 -292v-1h283c6 0 10 -4 10 -10v-32
c0 -6 -4 -10 -10 -10h-345c-6 0 -10 4 -10 10z" />
    <glyph glyph-name="three" unicode="3" 
d="M73 130c-2 6 0 11 7 13l32 8c7 2 11 -1 13 -7c14 -48 52 -102 140 -102c85 0 139 59 139 141c0 84 -57 145 -143 145h-31c-6 0 -10 4 -10 10v32c0 6 4 10 10 10h30c77 0 129 54 129 131c0 75 -48 127 -128 127c-78 0 -116 -47 -128 -98c-1 -6 -6 -9 -11 -8l-33 9
c-6 1 -9 6 -8 12c13 70 74 137 181 137c112 0 182 -74 182 -178c0 -80 -47 -128 -91 -153v-2c45 -19 105 -74 105 -172c0 -115 -79 -195 -193 -195s-176 69 -192 140z" />
    <glyph glyph-name="four" unicode="4" 
d="M67 136c-6 0 -10 4 -10 10v30c0 4 1 7 2 11l221 485c3 6 6 8 13 8h37c7 0 9 -4 7 -9l-219 -482v-1h210c4 0 6 2 6 6v186c0 6 4 10 10 10h34c6 0 10 -4 10 -10v-186c0 -4 2 -6 6 -6h75c6 0 10 -4 10 -10v-32c0 -6 -4 -10 -10 -10h-75c-4 0 -6 -2 -6 -6v-120
c0 -6 -4 -10 -10 -10h-34c-6 0 -10 4 -10 10v120c0 4 -2 6 -6 6h-261z" />
    <glyph glyph-name="five" unicode="5" 
d="M91 134c-1 5 1 10 7 12l32 8c7 2 11 -2 13 -8c10 -60 54 -104 130 -104c56 0 101 26 119 78c7 22 10 53 10 98c0 47 -4 77 -12 100c-16 51 -58 76 -115 76c-64 0 -107 -38 -120 -81c-2 -7 -4 -10 -10 -10h-33c-6 0 -10 4 -10 10v357c0 6 4 10 10 10h321c6 0 10 -4 10 -10
v-32c0 -6 -4 -10 -10 -10h-273c-4 0 -6 -2 -6 -6v-235h2c17 29 62 59 124 59c80 0 137 -37 160 -108c9 -28 16 -65 16 -120c0 -51 -5 -87 -14 -114c-24 -73 -87 -114 -168 -114c-105 0 -172 61 -183 144z" />
    <glyph glyph-name="six" unicode="6" 
d="M68 195c0 54 19 106 44 153l169 325c3 5 6 7 13 7h37c7 0 8 -5 6 -9l-153 -295l2 -1c17 14 49 24 88 24c110 0 191 -80 191 -202c0 -127 -83 -207 -198 -207c-116 0 -199 80 -199 205zM122 194c0 -90 59 -152 145 -152c85 0 144 62 144 152s-59 153 -144 153
c-86 0 -145 -63 -145 -153z" />
    <glyph glyph-name="seven" unicode="7" 
d="M157 11l243 614v3h-246c-4 0 -6 -2 -6 -6v-93c0 -6 -4 -10 -10 -10h-34c-6 0 -10 4 -10 10v141c0 6 4 10 10 10h344c6 0 10 -4 10 -10v-37c0 -4 -1 -7 -2 -10l-244 -614c-3 -7 -5 -9 -13 -9h-37c-6 0 -8 4 -5 11z" />
    <glyph glyph-name="eight" unicode="8" 
d="M66 184c0 84 45 146 109 173v2c-53 26 -91 81 -91 152c0 101 72 179 182 179s182 -78 182 -179c0 -71 -38 -126 -91 -152v-2c64 -27 109 -89 109 -173c0 -114 -83 -194 -200 -194s-200 80 -200 194zM266 384c77 0 128 55 128 127c0 73 -52 127 -128 127
s-128 -54 -128 -127c0 -72 50 -127 128 -127zM120 186c0 -83 57 -144 146 -144s146 61 146 144c0 84 -58 146 -146 146s-146 -62 -146 -146z" />
    <glyph glyph-name="nine" unicode="9" 
d="M195 9l153 295l-2 1c-17 -14 -49 -24 -88 -24c-110 0 -191 80 -191 202c0 127 83 207 198 207c116 0 199 -80 199 -205c0 -54 -19 -106 -44 -153l-169 -325c-3 -5 -6 -7 -13 -7h-37c-7 0 -8 5 -6 9zM265 333c86 0 145 63 145 153s-59 152 -145 152
c-85 0 -144 -62 -144 -152s59 -153 144 -153z" />
    <glyph glyph-name="colon" unicode=":" horiz-adv-x="227" 
d="M89 389c-6 0 -10 4 -10 10v68c0 6 4 10 10 10h49c6 0 10 -4 10 -10v-68c0 -6 -4 -10 -10 -10h-49zM79 10v67c0 6 4 10 10 10h49c6 0 10 -4 10 -10v-67c0 -6 -4 -10 -10 -10h-49c-6 0 -10 4 -10 10z" />
    <glyph glyph-name="semicolon" unicode=";" horiz-adv-x="227" 
d="M89 389c-6 0 -10 4 -10 10v68c0 6 4 10 10 10h49c6 0 10 -4 10 -10v-68c0 -6 -4 -10 -10 -10h-49zM82 77c0 6 4 10 10 10h43c6 0 10 -4 10 -10v-75c0 -10 -1 -14 -5 -22l-39 -77c-3 -6 -7 -8 -12 -8s-7 3 -7 9v173z" />
    <glyph glyph-name="less" unicode="&#x3c;" 
d="M76 250c-8 3 -10 6 -10 13v26c0 7 2 10 10 13l380 155c6 2 10 -1 10 -7v-35c0 -7 -3 -10 -10 -13l-316 -125v-2l316 -125c7 -3 10 -6 10 -13v-35c0 -6 -4 -9 -10 -7z" />
    <glyph glyph-name="equal" unicode="=" 
d="M76 348c-6 0 -10 4 -10 10v30c0 6 4 10 10 10h380c6 0 10 -4 10 -10v-30c0 -6 -4 -10 -10 -10h-380zM76 154c-6 0 -10 4 -10 10v30c0 6 4 10 10 10h380c6 0 10 -4 10 -10v-30c0 -6 -4 -10 -10 -10h-380z" />
    <glyph glyph-name="greater" unicode="&#x3e;" 
d="M66 102v35c0 7 3 10 10 13l316 125v2l-316 125c-7 3 -10 6 -10 13v35c0 6 4 9 10 7l380 -155c8 -3 10 -6 10 -13v-26c0 -7 -2 -10 -10 -13l-380 -155c-6 -2 -10 1 -10 7z" />
    <glyph glyph-name="question" unicode="?" horiz-adv-x="446" 
d="M196 184v39c0 41 7 66 32 98l55 73c50 61 61 89 61 131c0 72 -51 113 -118 113c-66 0 -110 -40 -124 -112c-1 -6 -5 -9 -11 -8l-34 6c-6 1 -9 6 -8 12c14 90 79 154 178 154c103 0 172 -69 172 -165c0 -54 -17 -91 -61 -144l-55 -74c-27 -33 -32 -50 -32 -88v-35
c0 -6 -4 -10 -10 -10h-35c-6 0 -10 4 -10 10zM188 10v67c0 6 4 10 10 10h50c6 0 10 -4 10 -10v-67c0 -6 -4 -10 -10 -10h-50c-6 0 -10 4 -10 10z" />
    <glyph glyph-name="at" unicode="@" horiz-adv-x="884" 
d="M49 267c0 233 162 393 393 393c232 0 394 -161 394 -393c0 -149 -69 -211 -154 -211c-56 0 -99 30 -117 78h-1c-23 -51 -72 -78 -137 -78c-70 0 -119 33 -141 100c-8 26 -13 56 -13 106s5 80 13 106c22 67 71 100 139 100c64 0 103 -26 122 -59h2v39c0 6 4 10 9 10h30
c6 0 9 -4 9 -10v-245c0 -70 43 -101 87 -101c54 0 103 39 103 165c0 207 -138 347 -345 347s-344 -140 -344 -347c0 -208 137 -348 344 -348c100 0 166 20 219 48c5 3 10 1 13 -4l10 -23c2 -5 1 -10 -5 -13c-60 -34 -132 -54 -237 -54c-231 0 -393 161 -393 394zM332 174
c16 -49 51 -71 103 -71c53 0 88 22 104 71c7 21 10 47 10 88s-3 67 -10 88c-16 49 -51 71 -104 71c-52 0 -87 -22 -103 -71c-7 -21 -10 -47 -10 -88s3 -67 10 -88z" />
    <glyph glyph-name="A" unicode="A" horiz-adv-x="596" 
d="M31 10l238 660c2 6 6 10 12 10h36c7 0 10 -4 12 -10l236 -660c2 -6 -1 -10 -7 -10h-39c-7 0 -11 2 -13 10l-60 167h-296l-60 -167c-3 -8 -7 -10 -13 -10h-39c-6 0 -9 4 -7 10zM169 232h258l-127 356h-3z" />
    <glyph glyph-name="B" unicode="B" horiz-adv-x="601" 
d="M94 10v660c0 6 4 10 10 10h228c129 0 198 -69 198 -176c0 -83 -42 -134 -105 -153v-2c50 -10 116 -63 116 -162c0 -117 -75 -187 -209 -187h-228c-6 0 -10 4 -10 10zM157 373h174c92 0 142 52 142 126c0 78 -50 127 -142 127h-174c-4 0 -6 -2 -6 -6v-241c0 -4 2 -6 6 -6z
M151 60c0 -4 2 -6 6 -6h179c97 0 148 52 148 132s-51 133 -148 133h-179c-4 0 -6 -2 -6 -6v-253z" />
    <glyph glyph-name="C" unicode="C" horiz-adv-x="556" 
d="M83 142c-11 34 -18 79 -18 198s7 164 18 198c34 102 108 152 215 152c93 0 166 -43 205 -126c2 -5 2 -10 -3 -13l-33 -16c-5 -3 -10 -1 -13 4c-31 58 -79 97 -156 97c-83 0 -134 -39 -160 -113c-9 -27 -15 -69 -15 -183s6 -156 15 -183c26 -74 77 -113 160 -113
c77 0 125 39 156 97c3 5 8 7 13 4l33 -16c5 -3 5 -8 3 -13c-39 -83 -112 -126 -205 -126c-107 0 -181 50 -215 152z" />
    <glyph glyph-name="D" unicode="D" horiz-adv-x="620" 
d="M94 10v660c0 6 4 10 10 10h213c113 0 187 -45 217 -138c13 -40 19 -78 19 -202s-6 -162 -19 -202c-30 -93 -104 -138 -217 -138h-213c-6 0 -10 4 -10 10zM151 60c0 -4 2 -6 6 -6h152c88 0 146 31 170 103c11 33 16 68 16 183s-5 150 -16 183c-24 72 -82 103 -170 103
h-152c-4 0 -6 -2 -6 -6v-560z" />
    <glyph glyph-name="E" unicode="E" horiz-adv-x="556" 
d="M94 10v660c0 6 4 10 10 10h389c6 0 10 -4 10 -10v-34c0 -6 -4 -10 -10 -10h-336c-4 0 -6 -2 -6 -6v-242c0 -4 2 -6 6 -6h289c6 0 10 -4 10 -10v-34c0 -6 -4 -10 -10 -10h-289c-4 0 -6 -2 -6 -6v-252c0 -4 2 -6 6 -6h336c6 0 10 -4 10 -10v-34c0 -6 -4 -10 -10 -10h-389
c-6 0 -10 4 -10 10z" />
    <glyph glyph-name="F" unicode="F" horiz-adv-x="551" 
d="M94 10v660c0 6 4 10 10 10h389c6 0 10 -4 10 -10v-34c0 -6 -4 -10 -10 -10h-336c-4 0 -6 -2 -6 -6v-249c0 -4 2 -6 6 -6h289c6 0 10 -4 10 -10v-34c0 -6 -4 -10 -10 -10h-289c-4 0 -6 -2 -6 -6v-295c0 -6 -4 -10 -10 -10h-37c-6 0 -10 4 -10 10z" />
    <glyph glyph-name="G" unicode="G" horiz-adv-x="609" 
d="M84 143c-11 34 -19 79 -19 197s8 163 19 197c33 101 111 153 222 153s180 -55 213 -126c2 -5 2 -10 -4 -13l-32 -16c-5 -2 -10 -1 -13 4c-34 62 -84 97 -165 97c-84 0 -141 -40 -166 -115c-9 -26 -16 -68 -16 -181s7 -155 16 -181c25 -75 82 -115 166 -115
c82 0 141 39 166 113c9 26 16 65 16 130c0 4 -2 6 -6 6h-154c-6 0 -10 4 -10 10v33c0 6 4 10 10 10h207c6 0 10 -4 10 -10v-41c0 -68 -8 -120 -18 -151c-32 -101 -111 -154 -220 -154c-111 0 -189 52 -222 153z" />
    <glyph glyph-name="H" unicode="H" horiz-adv-x="650" 
d="M94 10v660c0 6 4 10 10 10h37c6 0 10 -4 10 -10v-292c0 -4 2 -6 6 -6h336c4 0 6 2 6 6v292c0 6 4 10 10 10h37c6 0 10 -4 10 -10v-660c0 -6 -4 -10 -10 -10h-37c-6 0 -10 4 -10 10v302c0 4 -2 6 -6 6h-336c-4 0 -6 -2 -6 -6v-302c0 -6 -4 -10 -10 -10h-37
c-6 0 -10 4 -10 10z" />
    <glyph glyph-name="I" unicode="I" horiz-adv-x="245" 
d="M94 10v660c0 6 4 10 10 10h37c6 0 10 -4 10 -10v-660c0 -6 -4 -10 -10 -10h-37c-6 0 -10 4 -10 10z" />
    <glyph glyph-name="J" unicode="J" horiz-adv-x="474" 
d="M40 46c-4 4 -5 10 -1 14l27 25c4 4 10 4 15 0c24 -20 64 -41 107 -41c86 0 141 47 141 160v466c0 6 4 10 10 10h37c6 0 10 -4 10 -10v-466c0 -146 -78 -214 -199 -214c-59 0 -115 25 -147 56z" />
    <glyph glyph-name="K" unicode="K" horiz-adv-x="597" 
d="M94 10v660c0 6 4 10 10 10h37c6 0 10 -4 10 -10v-392l324 393c6 6 10 9 17 9h47c6 0 9 -6 4 -11l-215 -257l232 -401c4 -6 1 -11 -5 -11h-45c-7 0 -11 3 -15 9l-205 357l-139 -166v-190c0 -6 -4 -10 -10 -10h-37c-6 0 -10 4 -10 10z" />
    <glyph glyph-name="L" unicode="L" horiz-adv-x="530" 
d="M94 10v660c0 6 4 10 10 10h37c6 0 10 -4 10 -10v-610c0 -4 2 -6 6 -6h336c6 0 10 -4 10 -10v-34c0 -6 -4 -10 -10 -10h-389c-6 0 -10 4 -10 10z" />
    <glyph glyph-name="M" unicode="M" horiz-adv-x="755" 
d="M94 10v660c0 6 4 10 10 10h38c7 0 12 -3 15 -10l221 -487h4l216 487c3 7 8 10 14 10h39c6 0 10 -4 10 -10v-660c0 -6 -4 -10 -10 -10h-37c-6 0 -10 4 -10 10v532h-3l-196 -431c-4 -8 -8 -11 -18 -11h-20c-9 0 -13 3 -17 11l-196 431h-3v-532c0 -6 -4 -10 -10 -10h-37
c-6 0 -10 4 -10 10z" />
    <glyph glyph-name="N" unicode="N" horiz-adv-x="651" 
d="M94 10v660c0 6 4 10 10 10h37c7 0 13 -2 17 -10l339 -559h3v559c0 6 4 10 10 10h37c6 0 10 -4 10 -10v-660c0 -6 -4 -10 -10 -10h-39c-6 0 -12 2 -17 10l-336 560h-4v-560c0 -6 -4 -10 -10 -10h-37c-6 0 -10 4 -10 10z" />
    <glyph glyph-name="O" unicode="O" horiz-adv-x="609" 
d="M305 -10c-111 0 -187 53 -220 153c-12 36 -20 80 -20 197s8 161 20 197c33 100 109 153 220 153c110 0 186 -53 219 -153c12 -36 20 -80 20 -197s-8 -161 -20 -197c-33 -100 -109 -153 -219 -153zM486 340c0 110 -8 154 -17 181c-25 75 -80 115 -164 115
c-85 0 -140 -40 -165 -115c-9 -27 -17 -71 -17 -181s8 -154 17 -181c25 -75 80 -115 165 -115c84 0 139 40 164 115c9 27 17 71 17 181z" />
    <glyph glyph-name="P" unicode="P" horiz-adv-x="585" 
d="M141 0h-37c-6 0 -10 4 -10 10v660c0 6 4 10 10 10h227c130 0 209 -74 209 -193s-79 -192 -209 -192h-174c-4 0 -6 -2 -6 -6v-279c0 -6 -4 -10 -10 -10zM329 349c100 0 154 51 154 138s-54 139 -154 139h-172c-4 0 -6 -2 -6 -6v-265c0 -4 2 -6 6 -6h172z" />
    <glyph glyph-name="Q" unicode="Q" horiz-adv-x="609" 
d="M561 -9l-24 -23c-5 -4 -11 -4 -15 0l-66 71c-39 -32 -90 -49 -151 -49c-111 0 -187 53 -220 153c-12 36 -20 80 -20 197s8 161 20 197c33 100 109 153 220 153c110 0 186 -53 219 -153c12 -36 20 -80 20 -197s-8 -161 -20 -197c-8 -25 -19 -46 -32 -65l70 -73
c4 -4 4 -10 -1 -14zM305 44c46 0 84 12 113 36l-82 88c-4 4 -4 10 0 14l25 23c5 4 10 4 14 -1l77 -83c7 12 12 24 17 38c9 27 17 71 17 181s-8 154 -17 181c-25 75 -80 115 -164 115c-85 0 -140 -40 -165 -115c-9 -27 -17 -71 -17 -181s8 -154 17 -181
c25 -75 80 -115 165 -115z" />
    <glyph glyph-name="R" unicode="R" horiz-adv-x="615" 
d="M543 0h-46c-6 0 -9 2 -12 9l-143 295h-10h-175c-4 0 -6 -2 -6 -6v-288c0 -6 -4 -10 -10 -10h-37c-6 0 -10 4 -10 10v660c0 6 4 10 10 10h228c128 0 207 -72 207 -188c0 -94 -52 -159 -139 -180l148 -301c4 -6 1 -11 -5 -11zM331 358c97 0 151 48 151 134
c0 85 -54 134 -151 134h-174c-4 0 -6 -2 -6 -6v-256c0 -4 2 -6 6 -6h174z" />
    <glyph glyph-name="S" unicode="S" horiz-adv-x="596" 
d="M290 -10c-89 0 -178 38 -225 79c-4 4 -5 10 -1 14l24 30c4 5 10 5 14 1c45 -35 116 -70 195 -70c109 0 176 55 176 139c0 67 -38 116 -163 132l-31 4c-133 17 -196 81 -196 180c0 118 84 191 214 191c75 0 147 -23 194 -57c5 -3 6 -9 2 -14l-20 -31c-4 -5 -9 -5 -14 -2
c-54 33 -107 50 -165 50c-97 0 -154 -54 -154 -133c0 -69 44 -114 160 -129l31 -4c138 -18 199 -82 199 -183c0 -115 -82 -197 -240 -197z" />
    <glyph glyph-name="T" unicode="T" horiz-adv-x="525" 
d="M281 0h-37c-6 0 -10 4 -10 10v610c0 4 -2 6 -6 6h-196c-6 0 -10 4 -10 10v34c0 6 4 10 10 10h461c6 0 10 -4 10 -10v-34c0 -6 -4 -10 -10 -10h-196c-4 0 -6 -2 -6 -6v-610c0 -6 -4 -10 -10 -10z" />
    <glyph glyph-name="U" unicode="U" horiz-adv-x="635" 
d="M144 670v-436c0 -128 65 -190 173 -190c109 0 174 62 174 190v436c0 6 4 10 10 10h37c6 0 10 -4 10 -10v-435c0 -166 -90 -245 -231 -245c-140 0 -230 79 -230 245v435c0 6 4 10 10 10h37c6 0 10 -4 10 -10z" />
    <glyph glyph-name="V" unicode="V" horiz-adv-x="560" 
d="M297 0h-34c-6 0 -9 4 -11 10l-225 656c-4 9 0 14 7 14h35c9 0 12 -2 15 -10l197 -575h2l192 575c3 8 6 10 14 10h36c7 0 11 -5 8 -14l-224 -656c-2 -6 -6 -10 -12 -10z" />
    <glyph glyph-name="W" unicode="W" horiz-adv-x="817" 
d="M613 0h-33c-6 0 -9 3 -11 10l-159 557h-2l-160 -557c-2 -7 -5 -10 -11 -10h-32c-6 0 -10 4 -12 10l-161 659c-2 7 1 11 8 11h36c8 0 12 -3 13 -10l134 -560h2l157 560c2 7 5 10 12 10h30c7 0 10 -3 12 -10l159 -560h2l131 560c2 8 5 10 13 10h36c7 0 10 -4 8 -11
l-161 -659c-1 -6 -5 -10 -11 -10z" />
    <glyph glyph-name="X" unicode="X" horiz-adv-x="545" 
d="M506 0h-45c-7 0 -10 3 -13 9l-175 291h-1l-176 -291c-3 -6 -7 -9 -13 -9h-45c-6 0 -8 5 -5 11l207 346l-186 312c-4 6 -1 11 5 11h45c7 0 10 -3 13 -9l155 -257h1l155 257c4 6 7 9 13 9h45c6 0 8 -5 5 -11l-187 -312l208 -346c3 -6 1 -11 -6 -11z" />
    <glyph glyph-name="Y" unicode="Y" horiz-adv-x="515" 
d="M276 0h-37c-6 0 -10 4 -10 10v269l-204 390c-2 5 1 11 8 11h39c8 0 11 -2 15 -10l171 -325h3l168 325c4 8 7 10 15 10h38c8 0 10 -6 8 -11l-204 -390v-269c0 -6 -4 -10 -10 -10z" />
    <glyph glyph-name="Z" unicode="Z" horiz-adv-x="540" 
d="M476 0h-413c-6 0 -10 4 -10 10v33c0 5 2 10 5 15l361 567v1h-343c-6 0 -10 4 -10 10v34c0 6 4 10 10 10h400c6 0 10 -4 10 -10v-33c0 -5 -1 -9 -5 -15l-361 -567v-1h356c6 0 10 -4 10 -10v-34c0 -6 -4 -10 -10 -10z" />
    <glyph glyph-name="bracketleft" unicode="[" horiz-adv-x="283" 
d="M229 -84h-119c-6 0 -10 4 -10 10v804c0 6 4 10 10 10h119c6 0 10 -4 10 -10v-27c0 -6 -4 -10 -10 -10h-71c-4 0 -6 -2 -6 -6v-718c0 -4 2 -6 6 -6h71c6 0 10 -4 10 -10v-27c0 -6 -4 -10 -10 -10z" />
    <glyph glyph-name="backslash" unicode="\" horiz-adv-x="407" 
d="M332 -10h-30c-7 0 -11 3 -13 10l-221 680c-2 6 1 10 7 10h30c7 0 11 -3 13 -10l221 -680c2 -6 -1 -10 -7 -10z" />
    <glyph glyph-name="bracketright" unicode="]" horiz-adv-x="283" 
d="M173 -84h-119c-6 0 -10 4 -10 10v27c0 6 4 10 10 10h71c4 0 6 2 6 6v718c0 4 -2 6 -6 6h-71c-6 0 -10 4 -10 10v27c0 6 4 10 10 10h119c6 0 10 -4 10 -10v-804c0 -6 -4 -10 -10 -10z" />
    <glyph glyph-name="asciicircum" unicode="^" 
d="M458 282h-32c-6 0 -10 3 -13 10l-146 318h-2l-147 -318c-3 -7 -7 -10 -13 -10h-31c-6 0 -10 4 -7 10l173 378c3 6 7 10 14 10h24c7 0 11 -4 14 -10l172 -378c3 -6 0 -10 -6 -10z" />
    <glyph glyph-name="underscore" unicode="_" horiz-adv-x="459" 
d="M459 -123h-459v41h459v-41z" />
    <glyph glyph-name="grave" unicode="`" horiz-adv-x="421" 
d="M273 558h-25c-8 0 -12 3 -18 10l-88 122c-4 5 -1 10 5 10h38c8 0 12 -3 16 -10l77 -122c4 -6 1 -10 -5 -10z" />
    <glyph glyph-name="a" unicode="a" horiz-adv-x="513" 
d="M250 437c-58 0 -92 -13 -120 -36c-5 -4 -11 -4 -15 1l-17 25c-3 5 -2 10 3 14c34 29 85 46 152 46c124 0 174 -41 174 -158v-319c0 -6 -4 -10 -10 -10h-32c-6 0 -10 4 -10 10v50h-1c-19 -40 -70 -70 -148 -70c-96 0 -160 48 -160 141c0 95 65 141 181 141h121
c4 0 6 2 6 6v49c0 78 -27 110 -124 110zM237 40c82 0 137 42 137 107v73c0 4 -2 6 -6 6h-114c-95 0 -135 -31 -135 -94c0 -60 42 -92 118 -92z" />
    <glyph glyph-name="b" unicode="b" horiz-adv-x="531" 
d="M292 -10c-79 0 -122 33 -145 78h-1v-58c0 -6 -4 -10 -10 -10h-34c-6 0 -10 4 -10 10v660c0 6 4 10 10 10h34c6 0 10 -4 10 -10v-261h1c23 45 66 78 145 78c84 0 137 -38 162 -114c12 -39 17 -81 17 -135c0 -53 -5 -95 -17 -134c-25 -76 -78 -114 -162 -114zM281 42
c63 0 104 30 122 84c10 30 13 70 13 112c0 43 -3 83 -13 113c-18 54 -59 84 -122 84c-60 0 -104 -28 -122 -84c-9 -26 -13 -61 -13 -113s4 -86 13 -112c18 -56 62 -84 122 -84z" />
    <glyph glyph-name="c" unicode="c" horiz-adv-x="470" 
d="M60 238c0 57 6 95 15 125c25 78 90 124 178 124c75 0 126 -32 161 -90c3 -5 2 -10 -3 -13l-28 -18c-5 -3 -10 -1 -13 4c-28 44 -61 65 -117 65c-62 0 -106 -31 -125 -90c-9 -26 -13 -58 -13 -107s4 -80 13 -106c19 -59 63 -90 125 -90c56 0 89 21 117 65c3 5 8 7 13 4
l28 -18c5 -3 6 -8 3 -13c-35 -58 -86 -90 -161 -90c-88 0 -153 46 -178 124c-9 30 -15 67 -15 124z" />
    <glyph glyph-name="d" unicode="d" horiz-adv-x="531" 
d="M429 0h-34c-6 0 -10 4 -10 10v58h-1c-23 -45 -66 -78 -145 -78c-84 0 -138 38 -162 114c-13 39 -17 81 -17 134c0 54 4 96 17 135c24 76 78 114 162 114c79 0 122 -33 145 -78h1v261c0 6 4 10 10 10h34c6 0 10 -4 10 -10v-660c0 -6 -4 -10 -10 -10zM250 42
c60 0 104 28 122 84c9 26 13 60 13 112s-4 87 -13 113c-18 56 -62 84 -122 84c-62 0 -104 -30 -122 -84c-10 -30 -13 -70 -13 -113c0 -42 3 -82 13 -112c18 -54 60 -84 122 -84z" />
    <glyph glyph-name="e" unicode="e" horiz-adv-x="502" 
d="M257 -10c-93 0 -156 44 -183 126c-9 29 -14 62 -14 123c0 60 5 95 14 124c26 80 91 124 177 124s152 -44 178 -124c10 -30 14 -61 14 -127c0 -6 -4 -10 -11 -10h-311c-4 0 -6 -3 -6 -7c0 -40 3 -62 10 -84c22 -63 70 -93 135 -93c62 0 105 26 133 61c4 5 9 6 14 2l23 -21
c5 -4 5 -9 1 -14c-35 -47 -95 -80 -174 -80zM121 272h261c4 0 6 2 6 6c0 29 -3 50 -9 69c-19 59 -65 90 -128 90c-62 0 -108 -31 -127 -90c-6 -19 -9 -40 -9 -69c0 -4 2 -6 6 -6z" />
    <glyph glyph-name="f" unicode="f" horiz-adv-x="308" 
d="M152 0h-34c-6 0 -10 4 -10 10v413c0 4 -2 6 -6 6h-51c-6 0 -10 4 -10 10v28c0 6 4 10 10 10h51c4 0 6 2 6 6v51c0 114 36 146 133 146h28c6 0 10 -4 10 -10v-32c0 -6 -4 -10 -10 -10h-21c-73 0 -86 -15 -86 -87v-58c0 -4 2 -6 6 -6h101c6 0 10 -4 10 -10v-28
c0 -6 -4 -10 -10 -10h-101c-4 0 -6 -2 -6 -6v-413c0 -6 -4 -10 -10 -10z" />
    <glyph glyph-name="g" unicode="g" horiz-adv-x="522" 
d="M239 -190c-69 0 -132 30 -158 69c-3 5 -3 10 2 14l25 22c5 4 10 3 14 -2c29 -33 69 -51 118 -51c85 0 136 42 136 145v69h-1c-22 -47 -64 -78 -141 -78c-80 0 -135 41 -159 114c-11 34 -16 73 -16 130s5 96 16 130c24 73 79 115 159 115c77 0 119 -31 141 -78h1v58
c0 6 4 10 10 10h34c6 0 10 -4 10 -10v-458c0 -133 -72 -199 -191 -199zM245 49c55 0 99 25 119 84c9 27 12 59 12 109s-3 82 -12 109c-20 60 -64 84 -119 84c-59 0 -99 -29 -117 -83c-10 -28 -14 -62 -14 -110c0 -47 4 -82 14 -109c18 -55 58 -84 117 -84z" />
    <glyph glyph-name="h" unicode="h" horiz-adv-x="541" 
d="M445 0h-34c-6 0 -10 4 -10 10v282c0 95 -42 143 -125 143c-73 0 -130 -50 -130 -133v-292c0 -6 -4 -10 -10 -10h-34c-6 0 -10 4 -10 10v660c0 6 4 10 10 10h34c6 0 10 -4 10 -10v-260h1c24 47 74 77 141 77c106 0 167 -66 167 -182v-295c0 -6 -4 -10 -10 -10z" />
    <glyph glyph-name="i" unicode="i" horiz-adv-x="238" 
d="M141 604h-44c-6 0 -10 4 -10 10v56c0 6 4 10 10 10h44c6 0 10 -4 10 -10v-56c0 -6 -4 -10 -10 -10zM136 0h-34c-6 0 -10 4 -10 10v457c0 6 4 10 10 10h34c6 0 10 -4 10 -10v-457c0 -6 -4 -10 -10 -10z" />
    <glyph glyph-name="j" unicode="j" horiz-adv-x="238" 
d="M141 604h-44c-6 0 -10 4 -10 10v56c0 6 4 10 10 10h44c6 0 10 -4 10 -10v-56c0 -6 -4 -10 -10 -10zM23 -180h-11c-6 0 -10 4 -10 10v32c0 6 4 10 10 10h9c54 0 71 14 71 73v522c0 6 4 10 10 10h34c6 0 10 -4 10 -10v-521c0 -93 -35 -126 -123 -126z" />
    <glyph glyph-name="k" unicode="k" horiz-adv-x="500" 
d="M456 0h-41c-7 0 -10 2 -15 10l-152 247l-102 -120v-127c0 -6 -4 -10 -10 -10h-34c-6 0 -10 4 -10 10v660c0 6 4 10 10 10h34c6 0 10 -4 10 -10v-458l216 255c6 7 9 10 17 10h41c6 0 9 -6 5 -10l-141 -167l178 -290c3 -5 0 -10 -6 -10z" />
    <glyph glyph-name="l" unicode="l" horiz-adv-x="262" 
d="M213 -3h-23c-72 0 -99 33 -99 112v561c0 6 4 10 10 10h34c6 0 10 -4 10 -10v-559c0 -47 15 -62 51 -62h17c6 0 10 -4 10 -10v-32c0 -6 -4 -10 -10 -10z" />
    <glyph glyph-name="m" unicode="m" horiz-adv-x="850" 
d="M754 0h-34c-6 0 -10 4 -10 10v282c0 95 -43 143 -126 143c-73 0 -129 -50 -129 -133v-292c0 -6 -4 -10 -10 -10h-34c-6 0 -10 4 -10 10v282c0 95 -42 143 -125 143c-73 0 -130 -50 -130 -133v-292c0 -6 -4 -10 -10 -10h-34c-6 0 -10 4 -10 10v457c0 6 4 10 10 10h34
c6 0 10 -4 10 -10v-57h1c24 47 74 77 141 77c74 0 124 -31 148 -89h1c28 55 79 89 157 89c108 0 170 -66 170 -182v-295c0 -6 -4 -10 -10 -10z" />
    <glyph glyph-name="n" unicode="n" horiz-adv-x="541" 
d="M445 0h-34c-6 0 -10 4 -10 10v282c0 95 -42 143 -125 143c-73 0 -130 -50 -130 -133v-292c0 -6 -4 -10 -10 -10h-34c-6 0 -10 4 -10 10v457c0 6 4 10 10 10h34c6 0 10 -4 10 -10v-57h1c24 47 74 77 141 77c106 0 167 -66 167 -182v-295c0 -6 -4 -10 -10 -10z" />
    <glyph glyph-name="o" unicode="o" horiz-adv-x="509" 
d="M254 -10c-87 0 -152 45 -178 124c-10 32 -16 67 -16 125c0 57 6 92 16 124c26 79 91 124 178 124c88 0 153 -45 179 -124c10 -32 16 -67 16 -124c0 -58 -6 -93 -16 -125c-26 -79 -91 -124 -179 -124zM254 42c62 0 108 32 127 89c9 27 13 56 13 108c0 51 -4 80 -13 107
c-19 57 -65 89 -127 89c-61 0 -107 -32 -126 -89c-9 -27 -13 -56 -13 -107c0 -52 4 -81 13 -108c19 -57 65 -89 126 -89z" />
    <glyph glyph-name="p" unicode="p" horiz-adv-x="531" 
d="M136 -180h-34c-6 0 -10 4 -10 10v637c0 6 4 10 10 10h34c6 0 10 -4 10 -10v-58h1c23 45 66 78 145 78c84 0 137 -38 162 -114c12 -39 17 -81 17 -135c0 -53 -5 -95 -17 -134c-25 -76 -78 -114 -162 -114c-79 0 -122 33 -145 78h-1v-238c0 -6 -4 -10 -10 -10zM281 42
c63 0 104 30 122 84c10 30 13 70 13 112c0 43 -3 83 -13 113c-18 54 -59 84 -122 84c-60 0 -104 -28 -122 -84c-9 -26 -13 -61 -13 -113s4 -86 13 -112c18 -56 62 -84 122 -84z" />
    <glyph glyph-name="q" unicode="q" horiz-adv-x="531" 
d="M429 -180h-34c-6 0 -10 4 -10 10v238h-1c-23 -45 -66 -78 -145 -78c-84 0 -137 38 -162 114c-12 39 -17 81 -17 134c0 54 5 96 17 135c25 76 78 114 162 114c79 0 122 -33 145 -78h1v58c0 6 4 10 10 10h34c6 0 10 -4 10 -10v-637c0 -6 -4 -10 -10 -10zM250 42
c60 0 104 28 122 84c9 26 13 60 13 112s-4 87 -13 113c-18 56 -62 84 -122 84c-63 0 -104 -30 -122 -84c-10 -30 -13 -70 -13 -113c0 -42 3 -82 13 -112c18 -54 59 -84 122 -84z" />
    <glyph glyph-name="r" unicode="r" horiz-adv-x="396" 
d="M136 0h-34c-6 0 -10 4 -10 10v457c0 6 4 10 10 10h34c6 0 10 -4 10 -10v-61h1c18 47 61 81 128 81c38 0 73 -13 96 -33c5 -3 6 -8 2 -13l-20 -28c-4 -5 -9 -5 -15 -2c-22 14 -46 24 -76 24c-84 0 -116 -73 -116 -161v-264c0 -6 -4 -10 -10 -10z" />
    <glyph glyph-name="s" unicode="s" horiz-adv-x="481" 
d="M241 -10c-86 0 -149 36 -186 67c-4 4 -4 10 0 14l22 25c4 4 10 3 14 0c37 -30 90 -56 155 -56c83 0 124 37 124 92c0 48 -21 74 -109 84l-48 5c-89 9 -139 52 -139 127c0 87 63 139 168 139c65 0 121 -21 159 -46c5 -4 5 -10 2 -14l-18 -24c-3 -5 -9 -6 -14 -3
c-31 18 -82 37 -132 37c-73 0 -111 -32 -111 -85c0 -47 29 -72 110 -80l48 -5c93 -9 138 -54 138 -128c0 -91 -64 -149 -183 -149z" />
    <glyph glyph-name="t" unicode="t" horiz-adv-x="311" 
d="M255 -3h-26c-90 0 -124 35 -124 129v297c0 4 -2 6 -6 6h-50c-6 0 -10 4 -10 10v28c0 6 4 10 10 10h50c4 0 6 2 6 6v137c0 6 4 10 10 10h34c6 0 10 -4 10 -10v-137c0 -4 2 -6 6 -6h90c6 0 10 -4 10 -10v-28c0 -6 -4 -10 -10 -10h-90c-4 0 -6 -2 -6 -6v-294
c0 -64 22 -80 77 -80h19c6 0 10 -4 10 -10v-32c0 -6 -4 -10 -10 -10z" />
    <glyph glyph-name="u" unicode="u" horiz-adv-x="535" 
d="M433 0h-34c-6 0 -10 4 -10 10v56h-1c-24 -47 -74 -76 -139 -76c-106 0 -165 66 -165 181v296c0 6 4 10 10 10h34c6 0 10 -4 10 -10v-282c0 -96 40 -143 123 -143c72 0 128 50 128 133v292c0 6 4 10 10 10h34c6 0 10 -4 10 -10v-457c0 -6 -4 -10 -10 -10z" />
    <glyph glyph-name="v" unicode="v" horiz-adv-x="468" 
d="M250 0h-32c-7 0 -10 4 -12 10l-173 457c-2 6 1 10 8 10h37c7 0 10 -3 13 -10l144 -382h1l141 382c3 7 6 10 13 10h37c7 0 10 -4 8 -10l-173 -457c-2 -6 -6 -10 -12 -10z" />
    <glyph glyph-name="w" unicode="w" horiz-adv-x="736" 
d="M536 0h-31c-6 0 -10 3 -12 10l-124 381h-1l-126 -381c-2 -7 -5 -10 -12 -10h-30c-7 0 -10 3 -12 10l-149 457c-2 6 0 10 7 10h36c7 0 10 -3 13 -10l122 -381h1l124 381c2 6 5 10 12 10h29c6 0 10 -4 12 -10l126 -381h1l119 381c3 7 6 10 13 10h36c7 0 9 -4 7 -10
l-149 -457c-2 -7 -6 -10 -12 -10z" />
    <glyph glyph-name="x" unicode="x" horiz-adv-x="463" 
d="M419 0h-41c-7 0 -10 2 -14 8l-132 194h-1l-133 -194c-4 -6 -7 -8 -14 -8h-40c-7 0 -9 5 -6 10l163 240l-147 217c-3 5 -1 10 6 10h41c6 0 10 -2 14 -8l116 -172h1l117 172c4 6 8 8 14 8h40c7 0 9 -5 6 -10l-148 -217l164 -240c3 -5 1 -10 -6 -10z" />
    <glyph glyph-name="y" unicode="y" horiz-adv-x="467" 
d="M103 -180h-21c-6 0 -10 4 -10 10v32c0 6 4 10 10 10h18c41 0 63 17 90 89l19 49l-176 457c-2 6 0 10 7 10h38c7 0 10 -3 13 -10l145 -383h1l141 383c2 7 6 10 12 10h38c6 0 9 -4 7 -10l-195 -513c-41 -110 -75 -134 -137 -134z" />
    <glyph glyph-name="z" unicode="z" horiz-adv-x="467" 
d="M401 0h-333c-6 0 -10 4 -10 10v30c0 4 1 8 5 13l283 371v1h-265c-6 0 -10 4 -10 10v32c0 6 4 10 10 10h320c6 0 10 -4 10 -10v-32c0 -5 -1 -8 -5 -13l-282 -369v-2h277c6 0 10 -4 10 -10v-31c0 -6 -4 -10 -10 -10z" />
    <glyph glyph-name="braceleft" unicode="{" horiz-adv-x="318" 
d="M264 -84h-34c-63 0 -92 31 -92 105v199c0 62 -22 82 -57 84c-6 1 -10 4 -10 10v32c0 6 4 9 10 10c35 2 57 22 57 84v195c0 74 29 105 92 105h34c6 0 10 -4 10 -10v-27c0 -6 -4 -10 -10 -10h-26c-33 0 -49 -16 -49 -56v-191c0 -76 -15 -101 -51 -115v-2
c36 -14 51 -38 51 -115v-195c0 -40 16 -56 49 -56h26c6 0 10 -4 10 -10v-27c0 -6 -4 -10 -10 -10z" />
    <glyph glyph-name="bar" unicode="|" horiz-adv-x="246" 
d="M137 -84h-28c-6 0 -10 4 -10 10v804c0 6 4 10 10 10h28c6 0 10 -4 10 -10v-804c0 -6 -4 -10 -10 -10z" />
    <glyph glyph-name="braceright" unicode="}" horiz-adv-x="318" 
d="M88 -84h-34c-6 0 -10 4 -10 10v27c0 6 4 10 10 10h26c33 0 49 16 49 56v195c0 77 15 101 51 115v2c-36 14 -51 39 -51 115v191c0 40 -16 56 -49 56h-26c-6 0 -10 4 -10 10v27c0 6 4 10 10 10h34c63 0 92 -31 92 -105v-195c0 -62 22 -82 57 -84c6 -1 10 -4 10 -10v-32
c0 -6 -4 -9 -10 -10c-35 -2 -57 -22 -57 -84v-199c0 -74 -29 -105 -92 -105z" />
    <glyph glyph-name="asciitilde" unicode="~" 
d="M351 216c-41 0 -71 20 -98 39c-23 16 -47 32 -74 32c-35 0 -57 -17 -81 -57c-3 -5 -8 -6 -14 -2l-20 13c-6 4 -6 7 -3 14c25 49 69 79 119 79c42 0 71 -20 98 -39c23 -16 47 -32 74 -32c35 0 57 18 81 57c3 5 9 6 15 2l19 -12c6 -4 7 -7 3 -14c-25 -49 -68 -80 -119 -80z
" />
    <glyph glyph-name="uni00A0" unicode="&#xa0;" horiz-adv-x="246" 
 />
    <glyph glyph-name="Agrave" unicode="&#xc0;" horiz-adv-x="596" 
d="M31 10l238 660c2 6 6 10 12 10h36c7 0 10 -4 12 -10l236 -660c2 -6 -1 -10 -7 -10h-39c-7 0 -11 2 -13 10l-60 167h-296l-60 -167c-3 -8 -7 -10 -13 -10h-39c-6 0 -9 4 -7 10zM169 232h258l-127 356h-3zM311 764h-26c-8 0 -11 1 -18 9l-96 105c-4 5 -2 10 4 10h40
c8 0 13 -3 18 -10l82 -104c5 -6 2 -10 -4 -10z" />
    <glyph glyph-name="Aacute" unicode="&#xc1;" horiz-adv-x="596" 
d="M31 10l238 660c2 6 6 10 12 10h36c7 0 10 -4 12 -10l236 -660c2 -6 -1 -10 -7 -10h-39c-7 0 -11 2 -13 10l-60 167h-296l-60 -167c-3 -8 -7 -10 -13 -10h-39c-6 0 -9 4 -7 10zM169 232h258l-127 356h-3zM314 764h-26c-6 0 -9 4 -4 10l82 104c5 7 10 10 18 10h40
c6 0 8 -5 4 -10l-96 -105c-7 -8 -10 -9 -18 -9z" />
    <glyph glyph-name="Acircumflex" unicode="&#xc2;" horiz-adv-x="596" 
d="M31 10l238 660c2 6 6 10 12 10h36c7 0 10 -4 12 -10l236 -660c2 -6 -1 -10 -7 -10h-39c-7 0 -11 2 -13 10l-60 167h-296l-60 -167c-3 -8 -7 -10 -13 -10h-39c-6 0 -9 4 -7 10zM169 232h258l-127 356h-3zM411 754h-25c-8 0 -11 2 -17 10l-71 85h-2l-70 -85
c-7 -8 -10 -10 -17 -10h-25c-6 0 -8 5 -4 10l90 123c5 7 9 9 16 9h23c7 0 10 -2 15 -9l91 -123c4 -5 2 -10 -4 -10z" />
    <glyph glyph-name="Atilde" unicode="&#xc3;" horiz-adv-x="596" 
d="M31 10l238 660c2 6 6 10 12 10h36c7 0 10 -4 12 -10l236 -660c2 -6 -1 -10 -7 -10h-39c-7 0 -11 2 -13 10l-60 167h-296l-60 -167c-3 -8 -7 -10 -13 -10h-39c-6 0 -9 4 -7 10zM169 232h258l-127 356h-3zM350 782c-24 0 -42 10 -60 21c-16 10 -31 18 -49 18
c-23 0 -39 -14 -58 -33c-5 -4 -9 -2 -9 3v30c0 6 2 9 8 15c16 18 36 30 61 30c24 0 43 -10 60 -20c16 -11 31 -18 49 -18c23 0 40 13 59 33c4 4 8 2 8 -3v-30c0 -6 -1 -9 -7 -16c-17 -17 -37 -30 -62 -30z" />
    <glyph glyph-name="Adieresis" unicode="&#xc4;" horiz-adv-x="596" 
d="M31 10l238 660c2 6 6 10 12 10h36c7 0 10 -4 12 -10l236 -660c2 -6 -1 -10 -7 -10h-39c-7 0 -11 2 -13 10l-60 167h-296l-60 -167c-3 -8 -7 -10 -13 -10h-39c-6 0 -9 4 -7 10zM169 232h258l-127 356h-3zM417 786h-39c-6 0 -10 4 -10 10v56c0 6 4 10 10 10h39
c6 0 10 -4 10 -10v-56c0 -6 -4 -10 -10 -10zM217 786h-39c-6 0 -10 4 -10 10v56c0 6 4 10 10 10h39c6 0 10 -4 10 -10v-56c0 -6 -4 -10 -10 -10z" />
    <glyph glyph-name="Amacron" unicode="&#x100;" horiz-adv-x="596" 
d="M31 10l238 660c2 6 6 10 12 10h36c7 0 10 -4 12 -10l236 -660c2 -6 -1 -10 -7 -10h-39c-7 0 -11 2 -13 10l-60 167h-296l-60 -167c-3 -8 -7 -10 -13 -10h-39c-6 0 -9 4 -7 10zM169 232h258l-127 356h-3zM418 800h-240c-6 0 -10 4 -10 10v26c0 6 4 10 10 10h240
c6 0 10 -4 10 -10v-26c0 -6 -4 -10 -10 -10z" />
    <glyph glyph-name="Abreve" unicode="&#x102;" horiz-adv-x="596" 
d="M31 10l238 660c2 6 6 10 12 10h36c7 0 10 -4 12 -10l236 -660c2 -6 -1 -10 -7 -10h-39c-7 0 -11 2 -13 10l-60 167h-296l-60 -167c-3 -8 -7 -10 -13 -10h-39c-6 0 -9 4 -7 10zM169 232h258l-127 356h-3zM297 768c-68 0 -116 42 -124 103c-1 6 3 10 9 10h19
c7 0 10 -3 12 -10c11 -39 40 -59 84 -59c45 0 74 20 86 59c2 7 4 10 11 10h19c6 0 10 -4 9 -10c-9 -61 -56 -103 -125 -103z" />
    <glyph glyph-name="Aring" unicode="&#xc5;" horiz-adv-x="596" 
d="M31 10l238 660c2 6 6 10 12 10h36c7 0 10 -4 12 -10l236 -660c2 -6 -1 -10 -7 -10h-39c-7 0 -11 2 -13 10l-60 167h-296l-60 -167c-3 -8 -7 -10 -13 -10h-39c-6 0 -9 4 -7 10zM169 232h258l-127 356h-3zM385 826c0 -51 -37 -88 -88 -88s-88 37 -88 88s37 88 88 88
s88 -37 88 -88zM350 826c0 32 -21 56 -53 56s-53 -24 -53 -56s21 -56 53 -56s53 24 53 56z" />
    <glyph glyph-name="Aringacute" unicode="&#x1fa;" horiz-adv-x="596" 
d="M309 787h-26c-6 0 -8 5 -2 10l83 81c6 6 12 10 21 10h39c6 0 8 -6 3 -10l-96 -82c-8 -6 -14 -9 -22 -9zM387 671c0 -32 -15 -58 -38 -74l216 -587c2 -6 -2 -10 -8 -10h-38c-7 0 -11 3 -13 10l-61 167h-294l-61 -167c-3 -8 -7 -10 -13 -10h-38c-7 0 -10 4 -8 10l217 588
c-23 15 -37 41 -37 73c0 51 37 88 88 88s88 -37 88 -88zM352 671c0 32 -21 56 -53 56s-53 -24 -53 -56s21 -56 53 -56s53 24 53 56zM297 572l-126 -340h254l-125 340h-3z" />
    <glyph glyph-name="Aogonek" unicode="&#x104;" horiz-adv-x="596" 
d="M508 4l-62 174h-296l-60 -168c-3 -8 -7 -10 -13 -10h-38c-7 0 -10 4 -8 10l238 660c2 6 6 10 12 10h36c7 0 10 -4 12 -10l236 -660c2 -5 0 -8 -4 -11c-74 -52 -83 -75 -83 -96c0 -18 11 -28 29 -28c9 0 18 3 28 9c5 3 10 2 13 -3l11 -21c2 -5 1 -9 -4 -13
c-13 -10 -35 -19 -56 -19c-42 0 -70 25 -70 68c0 33 21 66 79 108zM297 588l-130 -357h261l-128 357h-3z" />
    <glyph glyph-name="AE" unicode="&#xc6;" horiz-adv-x="941" 
d="M878 0h-389c-6 0 -10 4 -10 10v161c0 4 -2 6 -6 6h-273l-104 -167c-4 -8 -8 -10 -14 -10h-44c-6 0 -9 5 -6 10l407 661c4 6 8 9 15 9h424c6 0 10 -4 10 -10v-34c0 -6 -4 -10 -10 -10h-336c-4 0 -6 -2 -6 -6v-242c0 -4 2 -6 6 -6h289c6 0 10 -4 10 -10v-34
c0 -6 -4 -10 -10 -10h-289c-4 0 -6 -2 -6 -6v-252c0 -4 2 -6 6 -6h336c6 0 10 -4 10 -10v-34c0 -6 -4 -10 -10 -10zM477 625l-243 -393h239c4 0 6 2 6 6v387h-2z" />
    <glyph glyph-name="AEacute" unicode="&#x1fc;" horiz-adv-x="941" 
d="M528 764h-26c-6 0 -9 4 -4 10l82 104c5 7 10 10 18 10h40c6 0 8 -5 4 -10l-96 -105c-7 -8 -10 -9 -18 -9zM878 0h-389c-6 0 -10 4 -10 10v161c0 4 -2 6 -6 6h-273l-104 -167c-4 -8 -8 -10 -14 -10h-44c-6 0 -9 5 -6 10l407 661c4 6 8 9 15 9h424c6 0 10 -4 10 -10v-34
c0 -6 -4 -10 -10 -10h-336c-4 0 -6 -2 -6 -6v-242c0 -4 2 -6 6 -6h289c6 0 10 -4 10 -10v-34c0 -6 -4 -10 -10 -10h-289c-4 0 -6 -2 -6 -6v-252c0 -4 2 -6 6 -6h336c6 0 10 -4 10 -10v-34c0 -6 -4 -10 -10 -10zM477 625l-243 -393h239c4 0 6 2 6 6v387h-2z" />
    <glyph glyph-name="Cacute" unicode="&#x106;" horiz-adv-x="556" 
d="M83 142c-11 34 -18 79 -18 198s7 164 18 198c34 102 108 152 215 152c93 0 166 -43 205 -126c2 -5 2 -10 -3 -13l-33 -16c-5 -3 -10 -1 -13 4c-31 58 -79 97 -156 97c-83 0 -134 -39 -160 -113c-9 -27 -15 -69 -15 -183s6 -156 15 -183c26 -74 77 -113 160 -113
c77 0 125 39 156 97c3 5 8 7 13 4l33 -16c5 -3 5 -8 3 -13c-39 -83 -112 -126 -205 -126c-107 0 -181 50 -215 152zM288 764h-26c-6 0 -9 4 -4 10l82 104c5 7 10 10 18 10h40c6 0 8 -5 4 -10l-96 -105c-7 -8 -10 -9 -18 -9z" />
    <glyph glyph-name="Ccircumflex" unicode="&#x108;" horiz-adv-x="556" 
d="M83 142c-11 34 -18 79 -18 198s7 164 18 198c34 102 108 152 215 152c93 0 166 -43 205 -126c2 -5 2 -10 -3 -13l-33 -16c-5 -3 -10 -1 -13 4c-31 58 -79 97 -156 97c-83 0 -134 -39 -160 -113c-9 -27 -15 -69 -15 -183s6 -156 15 -183c26 -74 77 -113 160 -113
c77 0 125 39 156 97c3 5 8 7 13 4l33 -16c5 -3 5 -8 3 -13c-39 -83 -112 -126 -205 -126c-107 0 -181 50 -215 152zM409 754h-25c-8 0 -11 2 -17 10l-71 85h-2l-70 -85c-7 -8 -10 -10 -17 -10h-25c-6 0 -8 5 -4 10l90 123c5 7 9 9 16 9h23c7 0 10 -2 15 -9l91 -123
c4 -5 2 -10 -4 -10z" />
    <glyph glyph-name="Ccaron" unicode="&#x10c;" horiz-adv-x="556" 
d="M83 142c-11 34 -18 79 -18 198s7 164 18 198c34 102 108 152 215 152c93 0 166 -43 205 -126c2 -5 2 -10 -3 -13l-33 -16c-5 -3 -10 -1 -13 4c-31 58 -79 97 -156 97c-83 0 -134 -39 -160 -113c-9 -27 -15 -69 -15 -183s6 -156 15 -183c26 -74 77 -113 160 -113
c77 0 125 39 156 97c3 5 8 7 13 4l33 -16c5 -3 5 -8 3 -13c-39 -83 -112 -126 -205 -126c-107 0 -181 50 -215 152zM307 754h-23c-7 0 -11 2 -16 9l-90 122c-4 5 -2 10 4 10h25c7 0 10 -2 17 -10l70 -85h2l71 85c6 8 9 10 17 10h25c6 0 8 -5 4 -10l-91 -122
c-5 -7 -8 -9 -15 -9z" />
    <glyph glyph-name="Cdotaccent" unicode="&#x10a;" horiz-adv-x="556" 
d="M317 786h-44c-6 0 -10 4 -10 10v56c0 6 4 10 10 10h44c6 0 10 -4 10 -10v-56c0 -6 -4 -10 -10 -10zM83 142c-11 34 -18 79 -18 198s7 164 18 198c34 102 108 152 215 152c93 0 166 -43 205 -126c2 -5 2 -10 -3 -13l-33 -16c-5 -3 -10 -1 -13 4c-31 58 -79 97 -156 97
c-83 0 -134 -39 -160 -113c-9 -27 -15 -69 -15 -183s6 -156 15 -183c26 -74 77 -113 160 -113c77 0 125 39 156 97c3 5 8 7 13 4l33 -16c5 -3 5 -8 3 -13c-39 -83 -112 -126 -205 -126c-107 0 -181 50 -215 152z" />
    <glyph glyph-name="Ccedilla" unicode="&#xc7;" horiz-adv-x="556" 
d="M262 -148h-31c-6 0 -9 4 -7 10l50 129c-92 6 -159 55 -191 151c-11 34 -18 79 -18 198s7 164 18 198c34 102 108 152 215 152c93 0 166 -43 205 -126c2 -5 2 -10 -3 -13l-33 -16c-5 -3 -10 -1 -13 4c-31 58 -79 97 -156 97c-83 0 -134 -39 -160 -113
c-9 -27 -15 -69 -15 -183s6 -156 15 -183c26 -74 77 -113 160 -113c77 0 125 39 156 97c3 5 8 7 13 4l33 -16c5 -3 5 -8 3 -13c-35 -75 -98 -117 -182 -125l-43 -129c-3 -8 -7 -10 -16 -10z" />
    <glyph glyph-name="Dcaron" unicode="&#x10e;" horiz-adv-x="620" 
d="M309 754h-23c-7 0 -11 2 -16 9l-90 122c-4 5 -2 10 4 10h25c7 0 10 -2 17 -10l70 -85h2l71 85c6 8 9 10 17 10h25c6 0 8 -5 4 -10l-91 -122c-5 -7 -8 -9 -15 -9zM94 10v660c0 6 4 10 10 10h213c113 0 187 -45 217 -138c13 -40 19 -78 19 -202s-6 -162 -19 -202
c-30 -93 -104 -138 -217 -138h-213c-6 0 -10 4 -10 10zM151 60c0 -4 2 -6 6 -6h152c88 0 146 31 170 103c11 33 16 68 16 183s-5 150 -16 183c-24 72 -82 103 -170 103h-152c-4 0 -6 -2 -6 -6v-560z" />
    <glyph glyph-name="Dcroat" unicode="&#x110;" horiz-adv-x="620" 
d="M317 0h-213c-6 0 -10 4 -10 10v304c0 4 -2 6 -6 6h-40c-6 0 -10 4 -10 10v30c0 6 4 10 10 10h40c4 0 6 2 6 6v294c0 6 4 10 10 10h213c113 0 187 -45 217 -138c13 -40 19 -78 19 -202s-6 -162 -19 -202c-30 -93 -104 -138 -217 -138zM309 54c88 0 146 31 170 103
c11 33 16 68 16 183s-5 150 -16 183c-24 72 -82 103 -170 103h-152c-4 0 -6 -2 -6 -6v-244c0 -4 2 -6 6 -6h130c6 0 10 -4 10 -10v-30c0 -6 -4 -10 -10 -10h-130c-4 0 -6 -2 -6 -6v-254c0 -4 2 -6 6 -6h152z" />
    <glyph glyph-name="Eth" unicode="&#xd0;" horiz-adv-x="620" 
d="M317 0h-213c-6 0 -10 4 -10 10v304c0 4 -2 6 -6 6h-40c-6 0 -10 4 -10 10v30c0 6 4 10 10 10h40c4 0 6 2 6 6v294c0 6 4 10 10 10h213c113 0 187 -45 217 -138c13 -40 19 -78 19 -202s-6 -162 -19 -202c-30 -93 -104 -138 -217 -138zM309 54c88 0 146 31 170 103
c11 33 16 68 16 183s-5 150 -16 183c-24 72 -82 103 -170 103h-152c-4 0 -6 -2 -6 -6v-244c0 -4 2 -6 6 -6h130c6 0 10 -4 10 -10v-30c0 -6 -4 -10 -10 -10h-130c-4 0 -6 -2 -6 -6v-254c0 -4 2 -6 6 -6h152z" />
    <glyph glyph-name="Egrave" unicode="&#xc8;" horiz-adv-x="556" 
d="M328 764h-26c-8 0 -11 1 -18 9l-96 105c-4 5 -2 10 4 10h40c8 0 13 -3 18 -10l82 -104c5 -6 2 -10 -4 -10zM94 10v660c0 6 4 10 10 10h389c6 0 10 -4 10 -10v-34c0 -6 -4 -10 -10 -10h-336c-4 0 -6 -2 -6 -6v-242c0 -4 2 -6 6 -6h289c6 0 10 -4 10 -10v-34
c0 -6 -4 -10 -10 -10h-289c-4 0 -6 -2 -6 -6v-252c0 -4 2 -6 6 -6h336c6 0 10 -4 10 -10v-34c0 -6 -4 -10 -10 -10h-389c-6 0 -10 4 -10 10z" />
    <glyph glyph-name="Eacute" unicode="&#xc9;" horiz-adv-x="556" 
d="M283 764h-26c-6 0 -9 4 -4 10l82 104c5 7 10 10 18 10h40c6 0 8 -5 4 -10l-96 -105c-7 -8 -10 -9 -18 -9zM94 10v660c0 6 4 10 10 10h389c6 0 10 -4 10 -10v-34c0 -6 -4 -10 -10 -10h-336c-4 0 -6 -2 -6 -6v-242c0 -4 2 -6 6 -6h289c6 0 10 -4 10 -10v-34
c0 -6 -4 -10 -10 -10h-289c-4 0 -6 -2 -6 -6v-252c0 -4 2 -6 6 -6h336c6 0 10 -4 10 -10v-34c0 -6 -4 -10 -10 -10h-389c-6 0 -10 4 -10 10z" />
    <glyph glyph-name="Ecircumflex" unicode="&#xca;" horiz-adv-x="556" 
d="M94 10v660c0 6 4 10 10 10h389c6 0 10 -4 10 -10v-34c0 -6 -4 -10 -10 -10h-336c-4 0 -6 -2 -6 -6v-242c0 -4 2 -6 6 -6h289c6 0 10 -4 10 -10v-34c0 -6 -4 -10 -10 -10h-289c-4 0 -6 -2 -6 -6v-252c0 -4 2 -6 6 -6h336c6 0 10 -4 10 -10v-34c0 -6 -4 -10 -10 -10h-389
c-6 0 -10 4 -10 10zM412 754h-25c-8 0 -11 2 -17 10l-71 85h-2l-70 -85c-7 -8 -10 -10 -17 -10h-25c-6 0 -8 5 -4 10l90 123c5 7 9 9 16 9h23c7 0 10 -2 15 -9l91 -123c4 -5 2 -10 -4 -10z" />
    <glyph glyph-name="Ecaron" unicode="&#x11a;" horiz-adv-x="556" 
d="M309 754h-23c-7 0 -11 2 -16 9l-90 122c-4 5 -2 10 4 10h25c7 0 10 -2 17 -10l70 -85h2l71 85c6 8 9 10 17 10h25c6 0 8 -5 4 -10l-91 -122c-5 -7 -8 -9 -15 -9zM94 10v660c0 6 4 10 10 10h389c6 0 10 -4 10 -10v-34c0 -6 -4 -10 -10 -10h-336c-4 0 -6 -2 -6 -6v-242
c0 -4 2 -6 6 -6h289c6 0 10 -4 10 -10v-34c0 -6 -4 -10 -10 -10h-289c-4 0 -6 -2 -6 -6v-252c0 -4 2 -6 6 -6h336c6 0 10 -4 10 -10v-34c0 -6 -4 -10 -10 -10h-389c-6 0 -10 4 -10 10z" />
    <glyph glyph-name="Edieresis" unicode="&#xcb;" horiz-adv-x="556" 
d="M413 786h-39c-6 0 -10 4 -10 10v56c0 6 4 10 10 10h39c6 0 10 -4 10 -10v-56c0 -6 -4 -10 -10 -10zM213 786h-39c-6 0 -10 4 -10 10v56c0 6 4 10 10 10h39c6 0 10 -4 10 -10v-56c0 -6 -4 -10 -10 -10zM94 10v660c0 6 4 10 10 10h389c6 0 10 -4 10 -10v-34
c0 -6 -4 -10 -10 -10h-336c-4 0 -6 -2 -6 -6v-242c0 -4 2 -6 6 -6h289c6 0 10 -4 10 -10v-34c0 -6 -4 -10 -10 -10h-289c-4 0 -6 -2 -6 -6v-252c0 -4 2 -6 6 -6h336c6 0 10 -4 10 -10v-34c0 -6 -4 -10 -10 -10h-389c-6 0 -10 4 -10 10z" />
    <glyph glyph-name="Emacron" unicode="&#x112;" horiz-adv-x="556" 
d="M410 800h-240c-6 0 -10 4 -10 10v26c0 6 4 10 10 10h240c6 0 10 -4 10 -10v-26c0 -6 -4 -10 -10 -10zM94 10v660c0 6 4 10 10 10h389c6 0 10 -4 10 -10v-34c0 -6 -4 -10 -10 -10h-336c-4 0 -6 -2 -6 -6v-242c0 -4 2 -6 6 -6h289c6 0 10 -4 10 -10v-34
c0 -6 -4 -10 -10 -10h-289c-4 0 -6 -2 -6 -6v-252c0 -4 2 -6 6 -6h336c6 0 10 -4 10 -10v-34c0 -6 -4 -10 -10 -10h-389c-6 0 -10 4 -10 10z" />
    <glyph glyph-name="Ebreve" unicode="&#x114;" horiz-adv-x="556" 
d="M295 768c-68 0 -116 42 -124 103c-1 6 3 10 9 10h19c7 0 10 -3 12 -10c11 -39 40 -59 84 -59c45 0 74 20 86 59c2 7 4 10 11 10h19c6 0 10 -4 9 -10c-9 -61 -56 -103 -125 -103zM94 10v660c0 6 4 10 10 10h389c6 0 10 -4 10 -10v-34c0 -6 -4 -10 -10 -10h-336
c-4 0 -6 -2 -6 -6v-242c0 -4 2 -6 6 -6h289c6 0 10 -4 10 -10v-34c0 -6 -4 -10 -10 -10h-289c-4 0 -6 -2 -6 -6v-252c0 -4 2 -6 6 -6h336c6 0 10 -4 10 -10v-34c0 -6 -4 -10 -10 -10h-389c-6 0 -10 4 -10 10z" />
    <glyph glyph-name="Edotaccent" unicode="&#x116;" horiz-adv-x="556" 
d="M320 786h-44c-6 0 -10 4 -10 10v56c0 6 4 10 10 10h44c6 0 10 -4 10 -10v-56c0 -6 -4 -10 -10 -10zM94 10v660c0 6 4 10 10 10h389c6 0 10 -4 10 -10v-34c0 -6 -4 -10 -10 -10h-336c-4 0 -6 -2 -6 -6v-242c0 -4 2 -6 6 -6h289c6 0 10 -4 10 -10v-34c0 -6 -4 -10 -10 -10
h-289c-4 0 -6 -2 -6 -6v-252c0 -4 2 -6 6 -6h336c6 0 10 -4 10 -10v-34c0 -6 -4 -10 -10 -10h-389c-6 0 -10 4 -10 10z" />
    <glyph glyph-name="Eogonek" unicode="&#x118;" horiz-adv-x="556" 
d="M493 0h-8c-70 -51 -83 -76 -83 -97c0 -18 11 -28 29 -28c9 0 18 3 28 9c5 3 10 2 13 -3l11 -21c2 -5 1 -9 -4 -13c-13 -10 -35 -19 -56 -19c-42 0 -70 25 -70 68c0 33 17 63 72 104h-321c-6 0 -10 4 -10 10v660c0 6 4 10 10 10h389c6 0 10 -4 10 -10v-34
c0 -6 -4 -10 -10 -10h-336c-4 0 -6 -2 -6 -6v-242c0 -4 2 -6 6 -6h289c6 0 10 -4 10 -10v-34c0 -6 -4 -10 -10 -10h-289c-4 0 -6 -2 -6 -6v-252c0 -4 2 -6 6 -6h336c6 0 10 -4 10 -10v-34c0 -6 -4 -10 -10 -10z" />
    <glyph glyph-name="Gcircumflex" unicode="&#x11c;" horiz-adv-x="609" 
d="M84 143c-11 34 -19 79 -19 197s8 163 19 197c33 101 111 153 222 153s180 -55 213 -126c2 -5 2 -10 -4 -13l-32 -16c-5 -2 -10 -1 -13 4c-34 62 -84 97 -165 97c-84 0 -141 -40 -166 -115c-9 -26 -16 -68 -16 -181s7 -155 16 -181c25 -75 82 -115 166 -115
c82 0 141 39 166 113c9 26 16 65 16 130c0 4 -2 6 -6 6h-154c-6 0 -10 4 -10 10v33c0 6 4 10 10 10h207c6 0 10 -4 10 -10v-41c0 -68 -8 -120 -18 -151c-32 -101 -111 -154 -220 -154c-111 0 -189 52 -222 153zM418 754h-25c-8 0 -11 2 -17 10l-71 85h-2l-70 -85
c-7 -8 -10 -10 -17 -10h-25c-6 0 -8 5 -4 10l90 123c5 7 9 9 16 9h23c7 0 10 -2 15 -9l91 -123c4 -5 2 -10 -4 -10z" />
    <glyph glyph-name="Gbreve" unicode="&#x11e;" horiz-adv-x="609" 
d="M304 768c-68 0 -116 42 -124 103c-1 6 3 10 9 10h19c7 0 10 -3 12 -10c11 -39 40 -59 84 -59c45 0 74 20 86 59c2 7 4 10 11 10h19c6 0 10 -4 9 -10c-9 -61 -56 -103 -125 -103zM84 143c-11 34 -19 79 -19 197s8 163 19 197c33 101 111 153 222 153s180 -55 213 -126
c2 -5 2 -10 -4 -13l-32 -16c-5 -2 -10 -1 -13 4c-34 62 -84 97 -165 97c-84 0 -141 -40 -166 -115c-9 -26 -16 -68 -16 -181s7 -155 16 -181c25 -75 82 -115 166 -115c82 0 141 39 166 113c9 26 16 65 16 130c0 4 -2 6 -6 6h-154c-6 0 -10 4 -10 10v33c0 6 4 10 10 10h207
c6 0 10 -4 10 -10v-41c0 -68 -8 -120 -18 -151c-32 -101 -111 -154 -220 -154c-111 0 -189 52 -222 153z" />
    <glyph glyph-name="Gdotaccent" unicode="&#x120;" horiz-adv-x="609" 
d="M326 786h-44c-6 0 -10 4 -10 10v56c0 6 4 10 10 10h44c6 0 10 -4 10 -10v-56c0 -6 -4 -10 -10 -10zM84 143c-11 34 -19 79 -19 197s8 163 19 197c33 101 111 153 222 153s180 -55 213 -126c2 -5 2 -10 -4 -13l-32 -16c-5 -2 -10 -1 -13 4c-34 62 -84 97 -165 97
c-84 0 -141 -40 -166 -115c-9 -26 -16 -68 -16 -181s7 -155 16 -181c25 -75 82 -115 166 -115c82 0 141 39 166 113c9 26 16 65 16 130c0 4 -2 6 -6 6h-154c-6 0 -10 4 -10 10v33c0 6 4 10 10 10h207c6 0 10 -4 10 -10v-41c0 -68 -8 -120 -18 -151
c-32 -101 -111 -154 -220 -154c-111 0 -189 52 -222 153z" />
    <glyph glyph-name="Gcommaaccent" unicode="&#x122;" horiz-adv-x="609" 
d="M285 -195c-6 0 -9 3 -9 9v120c0 6 4 10 10 10h37c6 0 10 -4 10 -10v-42c0 -10 -1 -14 -5 -22l-32 -57c-3 -6 -6 -8 -11 -8zM84 143c-11 34 -19 79 -19 197s8 163 19 197c33 101 111 153 222 153s180 -55 213 -126c2 -5 2 -10 -4 -13l-32 -16c-5 -2 -10 -1 -13 4
c-34 62 -84 97 -165 97c-84 0 -141 -40 -166 -115c-9 -26 -16 -68 -16 -181s7 -155 16 -181c25 -75 82 -115 166 -115c82 0 141 39 166 113c9 26 16 65 16 130c0 4 -2 6 -6 6h-154c-6 0 -10 4 -10 10v33c0 6 4 10 10 10h207c6 0 10 -4 10 -10v-41c0 -68 -8 -120 -18 -151
c-32 -101 -111 -154 -220 -154c-111 0 -189 52 -222 153z" />
    <glyph glyph-name="Hcircumflex" unicode="&#x124;" horiz-adv-x="650" 
d="M94 10v660c0 6 4 10 10 10h37c6 0 10 -4 10 -10v-292c0 -4 2 -6 6 -6h336c4 0 6 2 6 6v292c0 6 4 10 10 10h37c6 0 10 -4 10 -10v-660c0 -6 -4 -10 -10 -10h-37c-6 0 -10 4 -10 10v302c0 4 -2 6 -6 6h-336c-4 0 -6 -2 -6 -6v-302c0 -6 -4 -10 -10 -10h-37
c-6 0 -10 4 -10 10zM438 754h-25c-8 0 -11 2 -17 10l-71 85h-2l-70 -85c-7 -8 -10 -10 -17 -10h-25c-6 0 -8 5 -4 10l90 123c5 7 9 9 16 9h23c7 0 10 -2 15 -9l91 -123c4 -5 2 -10 -4 -10z" />
    <glyph glyph-name="Hbar" unicode="&#x126;" horiz-adv-x="650" 
d="M546 0h-37c-6 0 -10 4 -10 10v302c0 4 -2 6 -6 6h-336c-4 0 -6 -2 -6 -6v-302c0 -6 -4 -10 -10 -10h-37c-6 0 -10 4 -10 10v483c0 4 -2 6 -6 6h-40c-6 0 -10 4 -10 10v28c0 6 4 10 10 10h40c4 0 6 2 6 6v117c0 6 4 10 10 10h37c6 0 10 -4 10 -10v-117c0 -4 2 -6 6 -6h336
c4 0 6 2 6 6v117c0 6 4 10 10 10h37c6 0 10 -4 10 -10v-117c0 -4 2 -6 6 -6h40c6 0 10 -4 10 -10v-28c0 -6 -4 -10 -10 -10h-40c-4 0 -6 -2 -6 -6v-483c0 -6 -4 -10 -10 -10zM493 372c4 0 6 2 6 6v115c0 4 -2 6 -6 6h-336c-4 0 -6 -2 -6 -6v-115c0 -4 2 -6 6 -6h336z" />
    <glyph glyph-name="Igrave" unicode="&#xcc;" horiz-adv-x="245" 
d="M94 10v660c0 6 4 10 10 10h37c6 0 10 -4 10 -10v-660c0 -6 -4 -10 -10 -10h-37c-6 0 -10 4 -10 10zM140 764h-26c-8 0 -11 1 -18 9l-96 105c-4 5 -2 10 4 10h40c8 0 13 -3 18 -10l82 -104c5 -6 2 -10 -4 -10z" />
    <glyph glyph-name="Iacute" unicode="&#xcd;" horiz-adv-x="245" 
d="M94 10v660c0 6 4 10 10 10h37c6 0 10 -4 10 -10v-660c0 -6 -4 -10 -10 -10h-37c-6 0 -10 4 -10 10zM138 764h-26c-6 0 -9 4 -4 10l82 104c5 7 10 10 18 10h40c6 0 8 -5 4 -10l-96 -105c-7 -8 -10 -9 -18 -9z" />
    <glyph glyph-name="Ibreve" unicode="&#x12c;" horiz-adv-x="245" 
d="M94 10v660c0 6 4 10 10 10h37c6 0 10 -4 10 -10v-660c0 -6 -4 -10 -10 -10h-37c-6 0 -10 4 -10 10zM123 768c-68 0 -116 42 -124 103c-1 6 3 10 9 10h19c7 0 10 -3 12 -10c11 -39 40 -59 84 -59c45 0 74 20 86 59c2 7 4 10 11 10h19c6 0 10 -4 9 -10
c-9 -61 -56 -103 -125 -103z" />
    <glyph glyph-name="Icircumflex" unicode="&#xce;" horiz-adv-x="245" 
d="M94 10v660c0 6 4 10 10 10h37c6 0 10 -4 10 -10v-660c0 -6 -4 -10 -10 -10h-37c-6 0 -10 4 -10 10zM237 754h-25c-8 0 -11 2 -17 10l-71 85h-2l-70 -85c-7 -8 -10 -10 -17 -10h-25c-6 0 -8 5 -4 10l90 123c5 7 9 9 16 9h23c7 0 10 -2 15 -9l91 -123c4 -5 2 -10 -4 -10z
" />
    <glyph glyph-name="Itilde" unicode="&#x128;" horiz-adv-x="245" 
d="M94 10v660c0 6 4 10 10 10h37c6 0 10 -4 10 -10v-660c0 -6 -4 -10 -10 -10h-37c-6 0 -10 4 -10 10zM177 782c-24 0 -42 10 -60 21c-16 10 -31 18 -49 18c-23 0 -39 -14 -58 -33c-5 -4 -9 -2 -9 3v30c0 6 2 9 8 15c16 18 36 30 61 30c24 0 43 -10 60 -20
c16 -11 31 -18 49 -18c23 0 40 13 59 33c4 4 8 2 8 -3v-30c0 -6 -1 -9 -7 -16c-17 -17 -37 -30 -62 -30z" />
    <glyph glyph-name="Idieresis" unicode="&#xcf;" horiz-adv-x="245" 
d="M94 10v660c0 6 4 10 10 10h37c6 0 10 -4 10 -10v-660c0 -6 -4 -10 -10 -10h-37c-6 0 -10 4 -10 10zM243 786h-39c-6 0 -10 4 -10 10v56c0 6 4 10 10 10h39c6 0 10 -4 10 -10v-56c0 -6 -4 -10 -10 -10zM43 786h-39c-6 0 -10 4 -10 10v56c0 6 4 10 10 10h39
c6 0 10 -4 10 -10v-56c0 -6 -4 -10 -10 -10z" />
    <glyph glyph-name="Imacron" unicode="&#x12a;" horiz-adv-x="245" 
d="M94 10v660c0 6 4 10 10 10h37c6 0 10 -4 10 -10v-660c0 -6 -4 -10 -10 -10h-37c-6 0 -10 4 -10 10zM243 800h-240c-6 0 -10 4 -10 10v26c0 6 4 10 10 10h240c6 0 10 -4 10 -10v-26c0 -6 -4 -10 -10 -10z" />
    <glyph glyph-name="Idotaccent" unicode="&#x130;" horiz-adv-x="245" 
d="M94 10v660c0 6 4 10 10 10h37c6 0 10 -4 10 -10v-660c0 -6 -4 -10 -10 -10h-37c-6 0 -10 4 -10 10zM145 786h-44c-6 0 -10 4 -10 10v56c0 6 4 10 10 10h44c6 0 10 -4 10 -10v-56c0 -6 -4 -10 -10 -10z" />
    <glyph glyph-name="Iogonek" unicode="&#x12e;" horiz-adv-x="245" 
d="M34 -104c0 31 17 62 60 106v668c0 6 4 10 10 10h37c6 0 10 -4 10 -10v-660c0 -4 -1 -6 -4 -9c-54 -58 -64 -76 -64 -98c0 -18 11 -28 29 -28c9 0 18 3 28 9c5 3 10 2 13 -3l11 -21c2 -5 1 -9 -4 -13c-13 -10 -35 -19 -56 -19c-42 0 -70 25 -70 68z" />
    <glyph glyph-name="Jcircumflex" unicode="&#x134;" horiz-adv-x="474" 
d="M40 46c-4 4 -5 10 -1 14l27 25c4 4 10 4 15 0c24 -20 64 -41 107 -41c86 0 141 47 141 160v466c0 6 4 10 10 10h37c6 0 10 -4 10 -10v-466c0 -146 -78 -214 -199 -214c-59 0 -115 25 -147 56zM469 754h-25c-8 0 -11 2 -17 10l-71 85h-2l-70 -85c-7 -8 -10 -10 -17 -10
h-25c-6 0 -8 5 -4 10l90 123c5 7 9 9 16 9h23c7 0 10 -2 15 -9l91 -123c4 -5 2 -10 -4 -10z" />
    <glyph glyph-name="Kcommaaccent" unicode="&#x136;" horiz-adv-x="597" 
d="M280 -195c-6 0 -9 3 -9 9v120c0 6 4 10 10 10h37c6 0 10 -4 10 -10v-42c0 -10 -1 -14 -5 -22l-32 -57c-3 -6 -6 -8 -11 -8zM94 10v660c0 6 4 10 10 10h37c6 0 10 -4 10 -10v-392l324 393c6 6 10 9 17 9h47c6 0 9 -6 4 -11l-215 -257l232 -401c4 -6 1 -11 -5 -11h-45
c-7 0 -11 3 -15 9l-205 357l-139 -166v-190c0 -6 -4 -10 -10 -10h-37c-6 0 -10 4 -10 10z" />
    <glyph glyph-name="Lacute" unicode="&#x139;" horiz-adv-x="530" 
d="M152 764h-26c-6 0 -9 4 -4 10l82 104c5 7 10 10 18 10h40c6 0 8 -5 4 -10l-96 -105c-7 -8 -10 -9 -18 -9zM94 10v660c0 6 4 10 10 10h37c6 0 10 -4 10 -10v-610c0 -4 2 -6 6 -6h336c6 0 10 -4 10 -10v-34c0 -6 -4 -10 -10 -10h-389c-6 0 -10 4 -10 10z" />
    <glyph glyph-name="Lcaron" unicode="&#x13d;" horiz-adv-x="530" 
d="M253 535c-6 0 -9 4 -9 10v125c0 6 4 10 10 10h37c6 0 10 -4 10 -10v-48c0 -9 -1 -13 -5 -21l-32 -57c-3 -6 -6 -9 -11 -9zM94 10v660c0 6 4 10 10 10h37c6 0 10 -4 10 -10v-610c0 -4 2 -6 6 -6h336c6 0 10 -4 10 -10v-34c0 -6 -4 -10 -10 -10h-389c-6 0 -10 4 -10 10z
" />
    <glyph glyph-name="Lcommaaccent" unicode="&#x13b;" horiz-adv-x="530" 
d="M281 -195c-6 0 -9 3 -9 9v120c0 6 4 10 10 10h37c6 0 10 -4 10 -10v-42c0 -10 -1 -14 -5 -22l-32 -57c-3 -6 -6 -8 -11 -8zM94 10v660c0 6 4 10 10 10h37c6 0 10 -4 10 -10v-610c0 -4 2 -6 6 -6h336c6 0 10 -4 10 -10v-34c0 -6 -4 -10 -10 -10h-389c-6 0 -10 4 -10 10z
" />
    <glyph glyph-name="Lslash" unicode="&#x141;" horiz-adv-x="530" 
d="M493 0h-389c-6 0 -10 4 -10 10v281l-57 -29c-6 -3 -10 0 -10 6v36c0 6 2 10 10 14l57 29v323c0 6 4 10 10 10h37c6 0 10 -4 10 -10v-294l158 81c6 3 10 0 10 -6v-36c0 -6 -2 -10 -10 -14l-158 -81v-260c0 -4 2 -6 6 -6h336c6 0 10 -4 10 -10v-34c0 -6 -4 -10 -10 -10z
" />
    <glyph glyph-name="Ldot" unicode="&#x13f;" horiz-adv-x="530" 
d="M94 10v660c0 6 4 10 10 10h37c6 0 10 -4 10 -10v-610c0 -4 2 -6 6 -6h336c6 0 10 -4 10 -10v-34c0 -6 -4 -10 -10 -10h-389c-6 0 -10 4 -10 10zM412 283h-49c-6 0 -10 4 -10 10v67c0 6 4 10 10 10h49c6 0 10 -4 10 -10v-67c0 -6 -4 -10 -10 -10z" />
    <glyph glyph-name="Nacute" unicode="&#x143;" horiz-adv-x="651" 
d="M311 764h-26c-6 0 -9 4 -4 10l82 104c5 7 10 10 18 10h40c6 0 8 -5 4 -10l-96 -105c-7 -8 -10 -9 -18 -9zM94 10v660c0 6 4 10 10 10h37c7 0 13 -2 17 -10l339 -559h3v559c0 6 4 10 10 10h37c6 0 10 -4 10 -10v-660c0 -6 -4 -10 -10 -10h-39c-6 0 -12 2 -17 10l-336 560
h-4v-560c0 -6 -4 -10 -10 -10h-37c-6 0 -10 4 -10 10z" />
    <glyph glyph-name="Ncaron" unicode="&#x147;" horiz-adv-x="651" 
d="M337 754h-23c-7 0 -11 2 -16 9l-90 122c-4 5 -2 10 4 10h25c7 0 10 -2 17 -10l70 -85h2l71 85c6 8 9 10 17 10h25c6 0 8 -5 4 -10l-91 -122c-5 -7 -8 -9 -15 -9zM94 10v660c0 6 4 10 10 10h37c7 0 13 -2 17 -10l339 -559h3v559c0 6 4 10 10 10h37c6 0 10 -4 10 -10v-660
c0 -6 -4 -10 -10 -10h-39c-6 0 -12 2 -17 10l-336 560h-4v-560c0 -6 -4 -10 -10 -10h-37c-6 0 -10 4 -10 10z" />
    <glyph glyph-name="Ntilde" unicode="&#xd1;" horiz-adv-x="651" 
d="M378 782c-24 0 -42 10 -60 21c-16 10 -31 18 -49 18c-23 0 -39 -14 -58 -33c-5 -4 -9 -2 -9 3v30c0 6 2 9 8 15c16 18 36 30 61 30c24 0 43 -10 60 -20c16 -11 31 -18 49 -18c23 0 40 13 59 33c4 4 8 2 8 -3v-30c0 -6 -1 -9 -7 -16c-17 -17 -37 -30 -62 -30zM94 10v660
c0 6 4 10 10 10h37c7 0 13 -2 17 -10l339 -559h3v559c0 6 4 10 10 10h37c6 0 10 -4 10 -10v-660c0 -6 -4 -10 -10 -10h-39c-6 0 -12 2 -17 10l-336 560h-4v-560c0 -6 -4 -10 -10 -10h-37c-6 0 -10 4 -10 10z" />
    <glyph glyph-name="Ncommaaccent" unicode="&#x145;" horiz-adv-x="651" 
d="M312 -195c-6 0 -9 3 -9 9v120c0 6 4 10 10 10h37c6 0 10 -4 10 -10v-42c0 -10 -1 -14 -5 -22l-32 -57c-3 -6 -6 -8 -11 -8zM94 10v660c0 6 4 10 10 10h37c7 0 13 -2 17 -10l339 -559h3v559c0 6 4 10 10 10h37c6 0 10 -4 10 -10v-660c0 -6 -4 -10 -10 -10h-39
c-6 0 -12 2 -17 10l-336 560h-4v-560c0 -6 -4 -10 -10 -10h-37c-6 0 -10 4 -10 10z" />
    <glyph glyph-name="Ograve" unicode="&#xd2;" horiz-adv-x="609" 
d="M334 764h-26c-8 0 -11 1 -18 9l-96 105c-4 5 -2 10 4 10h40c8 0 13 -3 18 -10l82 -104c5 -6 2 -10 -4 -10zM305 -10c-111 0 -187 53 -220 153c-12 36 -20 80 -20 197s8 161 20 197c33 100 109 153 220 153c110 0 186 -53 219 -153c12 -36 20 -80 20 -197
s-8 -161 -20 -197c-33 -100 -109 -153 -219 -153zM486 340c0 110 -8 154 -17 181c-25 75 -80 115 -164 115c-85 0 -140 -40 -165 -115c-9 -27 -17 -71 -17 -181s8 -154 17 -181c25 -75 80 -115 165 -115c84 0 139 40 164 115c9 27 17 71 17 181z" />
    <glyph glyph-name="Oacute" unicode="&#xd3;" horiz-adv-x="609" 
d="M300 764h-26c-6 0 -9 4 -4 10l82 104c5 7 10 10 18 10h40c6 0 8 -5 4 -10l-96 -105c-7 -8 -10 -9 -18 -9zM305 -10c-111 0 -187 53 -220 153c-12 36 -20 80 -20 197s8 161 20 197c33 100 109 153 220 153c110 0 186 -53 219 -153c12 -36 20 -80 20 -197s-8 -161 -20 -197
c-33 -100 -109 -153 -219 -153zM486 340c0 110 -8 154 -17 181c-25 75 -80 115 -164 115c-85 0 -140 -40 -165 -115c-9 -27 -17 -71 -17 -181s8 -154 17 -181c25 -75 80 -115 165 -115c84 0 139 40 164 115c9 27 17 71 17 181z" />
    <glyph glyph-name="Ocircumflex" unicode="&#xd4;" horiz-adv-x="609" 
d="M305 -10c-111 0 -187 53 -220 153c-12 36 -20 80 -20 197s8 161 20 197c33 100 109 153 220 153c110 0 186 -53 219 -153c12 -36 20 -80 20 -197s-8 -161 -20 -197c-33 -100 -109 -153 -219 -153zM486 340c0 110 -8 154 -17 181c-25 75 -80 115 -164 115
c-85 0 -140 -40 -165 -115c-9 -27 -17 -71 -17 -181s8 -154 17 -181c25 -75 80 -115 165 -115c84 0 139 40 164 115c9 27 17 71 17 181zM418 754h-25c-8 0 -11 2 -17 10l-71 85h-2l-70 -85c-7 -8 -10 -10 -17 -10h-25c-6 0 -8 5 -4 10l90 123c5 7 9 9 16 9h23
c7 0 10 -2 15 -9l91 -123c4 -5 2 -10 -4 -10z" />
    <glyph glyph-name="Otilde" unicode="&#xd5;" horiz-adv-x="609" 
d="M358 782c-24 0 -42 10 -60 21c-16 10 -31 18 -49 18c-23 0 -39 -14 -58 -33c-5 -4 -9 -2 -9 3v30c0 6 2 9 8 15c16 18 36 30 61 30c24 0 43 -10 60 -20c16 -11 31 -18 49 -18c23 0 40 13 59 33c4 4 8 2 8 -3v-30c0 -6 -1 -9 -7 -16c-17 -17 -37 -30 -62 -30zM305 -10
c-111 0 -187 53 -220 153c-12 36 -20 80 -20 197s8 161 20 197c33 100 109 153 220 153c110 0 186 -53 219 -153c12 -36 20 -80 20 -197s-8 -161 -20 -197c-33 -100 -109 -153 -219 -153zM486 340c0 110 -8 154 -17 181c-25 75 -80 115 -164 115c-85 0 -140 -40 -165 -115
c-9 -27 -17 -71 -17 -181s8 -154 17 -181c25 -75 80 -115 165 -115c84 0 139 40 164 115c9 27 17 71 17 181z" />
    <glyph glyph-name="Odieresis" unicode="&#xd6;" horiz-adv-x="609" 
d="M424 786h-39c-6 0 -10 4 -10 10v56c0 6 4 10 10 10h39c6 0 10 -4 10 -10v-56c0 -6 -4 -10 -10 -10zM224 786h-39c-6 0 -10 4 -10 10v56c0 6 4 10 10 10h39c6 0 10 -4 10 -10v-56c0 -6 -4 -10 -10 -10zM305 -10c-111 0 -187 53 -220 153c-12 36 -20 80 -20 197
s8 161 20 197c33 100 109 153 220 153c110 0 186 -53 219 -153c12 -36 20 -80 20 -197s-8 -161 -20 -197c-33 -100 -109 -153 -219 -153zM486 340c0 110 -8 154 -17 181c-25 75 -80 115 -164 115c-85 0 -140 -40 -165 -115c-9 -27 -17 -71 -17 -181s8 -154 17 -181
c25 -75 80 -115 165 -115c84 0 139 40 164 115c9 27 17 71 17 181z" />
    <glyph glyph-name="Omacron" unicode="&#x14c;" horiz-adv-x="609" 
d="M424 800h-240c-6 0 -10 4 -10 10v26c0 6 4 10 10 10h240c6 0 10 -4 10 -10v-26c0 -6 -4 -10 -10 -10zM305 -10c-111 0 -187 53 -220 153c-12 36 -20 80 -20 197s8 161 20 197c33 100 109 153 220 153c110 0 186 -53 219 -153c12 -36 20 -80 20 -197s-8 -161 -20 -197
c-33 -100 -109 -153 -219 -153zM486 340c0 110 -8 154 -17 181c-25 75 -80 115 -164 115c-85 0 -140 -40 -165 -115c-9 -27 -17 -71 -17 -181s8 -154 17 -181c25 -75 80 -115 165 -115c84 0 139 40 164 115c9 27 17 71 17 181z" />
    <glyph glyph-name="Obreve" unicode="&#x14e;" horiz-adv-x="609" 
d="M304 768c-68 0 -116 42 -124 103c-1 6 3 10 9 10h19c7 0 10 -3 12 -10c11 -39 40 -59 84 -59c45 0 74 20 86 59c2 7 4 10 11 10h19c6 0 10 -4 9 -10c-9 -61 -56 -103 -125 -103zM305 -10c-111 0 -187 53 -220 153c-12 36 -20 80 -20 197s8 161 20 197
c33 100 109 153 220 153c110 0 186 -53 219 -153c12 -36 20 -80 20 -197s-8 -161 -20 -197c-33 -100 -109 -153 -219 -153zM486 340c0 110 -8 154 -17 181c-25 75 -80 115 -164 115c-85 0 -140 -40 -165 -115c-9 -27 -17 -71 -17 -181s8 -154 17 -181
c25 -75 80 -115 165 -115c84 0 139 40 164 115c9 27 17 71 17 181z" />
    <glyph glyph-name="Ohungarumlaut" unicode="&#x150;" horiz-adv-x="609" 
d="M305 -10c-111 0 -187 53 -220 153c-12 36 -20 80 -20 197s8 161 20 197c33 100 109 153 220 153c110 0 186 -53 219 -153c12 -36 20 -80 20 -197s-8 -161 -20 -197c-33 -100 -109 -153 -219 -153zM486 340c0 110 -8 154 -17 181c-25 75 -80 115 -164 115
c-85 0 -140 -40 -165 -115c-9 -27 -17 -71 -17 -181s8 -154 17 -181c25 -75 80 -115 165 -115c84 0 139 40 164 115c9 27 17 71 17 181zM376 764h-25c-6 0 -8 5 -4 10l67 105c5 7 8 10 16 10h34c6 0 8 -5 4 -10l-76 -105c-5 -7 -8 -10 -16 -10zM252 764h-25c-6 0 -8 5 -4 10
l67 105c4 7 8 10 16 10h33c6 0 8 -5 4 -10l-75 -105c-5 -7 -9 -10 -16 -10z" />
    <glyph glyph-name="Oslash" unicode="&#xd8;" horiz-adv-x="609" 
d="M305 -10c-62 0 -113 17 -151 48l-33 -58c-3 -6 -8 -10 -15 -10h-24c-6 0 -9 4 -6 10l49 86c-17 22 -30 47 -40 77c-12 36 -20 80 -20 197s8 161 20 197c33 100 109 153 220 153c61 0 111 -16 150 -48l33 58c3 6 8 10 15 10h24c6 0 9 -4 6 -10l-50 -87
c17 -21 31 -47 41 -76c12 -36 20 -80 20 -197s-8 -161 -20 -197c-33 -100 -109 -153 -219 -153zM140 159c4 -14 10 -27 17 -38l269 471c-30 29 -70 44 -121 44c-85 0 -140 -40 -165 -115c-9 -27 -17 -71 -17 -181s8 -154 17 -181zM486 340c0 110 -8 154 -17 181
c-5 13 -10 26 -17 37l-269 -471c30 -29 70 -43 122 -43c84 0 139 40 164 115c9 27 17 71 17 181z" />
    <glyph glyph-name="Oslashacute" unicode="&#x1fe;" horiz-adv-x="609" 
d="M305 -10c-62 0 -113 17 -151 48l-33 -58c-3 -6 -8 -10 -15 -10h-24c-6 0 -9 4 -6 10l49 86c-17 22 -30 47 -40 77c-12 36 -20 80 -20 197s8 161 20 197c33 100 109 153 220 153c61 0 111 -16 150 -48l33 58c3 6 8 10 15 10h24c6 0 9 -4 6 -10l-50 -87
c17 -21 31 -47 41 -76c12 -36 20 -80 20 -197s-8 -161 -20 -197c-33 -100 -109 -153 -219 -153zM140 159c4 -14 10 -27 17 -38l269 471c-30 29 -70 44 -121 44c-85 0 -140 -40 -165 -115c-9 -27 -17 -71 -17 -181s8 -154 17 -181zM486 340c0 110 -8 154 -17 181
c-5 13 -10 26 -17 37l-269 -471c30 -29 70 -43 122 -43c84 0 139 40 164 115c9 27 17 71 17 181zM300 764h-26c-6 0 -9 4 -4 10l82 104c5 7 10 10 18 10h40c6 0 8 -5 4 -10l-96 -105c-7 -8 -10 -9 -18 -9z" />
    <glyph glyph-name="OE" unicode="&#x152;" horiz-adv-x="949" 
d="M306 -10c-111 0 -187 53 -220 153c-12 36 -20 80 -20 197s8 161 20 197c33 100 109 153 220 153c81 0 145 -31 180 -98h1v78c0 6 4 10 10 10h389c6 0 10 -4 10 -10v-34c0 -6 -4 -10 -10 -10h-336c-4 0 -6 -2 -6 -6v-242c0 -4 2 -6 6 -6h289c6 0 10 -4 10 -10v-34
c0 -6 -4 -10 -10 -10h-289c-4 0 -6 -2 -6 -6v-252c0 -4 2 -6 6 -6h336c6 0 10 -4 10 -10v-34c0 -6 -4 -10 -10 -10h-389c-6 0 -10 4 -10 10v78h-1c-35 -67 -99 -98 -180 -98zM306 44c84 0 139 40 164 115c9 27 17 71 17 181s-8 154 -17 181c-25 75 -80 115 -164 115
c-85 0 -140 -40 -165 -115c-9 -27 -17 -71 -17 -181s8 -154 17 -181c25 -75 80 -115 165 -115z" />
    <glyph glyph-name="Racute" unicode="&#x154;" horiz-adv-x="615" 
d="M543 0h-46c-6 0 -9 2 -12 9l-143 295h-10h-175c-4 0 -6 -2 -6 -6v-288c0 -6 -4 -10 -10 -10h-37c-6 0 -10 4 -10 10v660c0 6 4 10 10 10h228c128 0 207 -72 207 -188c0 -94 -52 -159 -139 -180l148 -301c4 -6 1 -11 -5 -11zM331 358c97 0 151 48 151 134
c0 85 -54 134 -151 134h-174c-4 0 -6 -2 -6 -6v-256c0 -4 2 -6 6 -6h174zM280 764h-26c-6 0 -9 4 -4 10l82 104c5 7 10 10 18 10h40c6 0 8 -5 4 -10l-96 -105c-7 -8 -10 -9 -18 -9z" />
    <glyph glyph-name="Rcaron" unicode="&#x158;" horiz-adv-x="615" 
d="M298 754h-23c-7 0 -11 2 -16 9l-90 122c-4 5 -2 10 4 10h25c7 0 10 -2 17 -10l70 -85h2l71 85c6 8 9 10 17 10h25c6 0 8 -5 4 -10l-91 -122c-5 -7 -8 -9 -15 -9zM543 0h-46c-6 0 -9 2 -12 9l-143 295h-10h-175c-4 0 -6 -2 -6 -6v-288c0 -6 -4 -10 -10 -10h-37
c-6 0 -10 4 -10 10v660c0 6 4 10 10 10h228c128 0 207 -72 207 -188c0 -94 -52 -159 -139 -180l148 -301c4 -6 1 -11 -5 -11zM331 358c97 0 151 48 151 134c0 85 -54 134 -151 134h-174c-4 0 -6 -2 -6 -6v-256c0 -4 2 -6 6 -6h174z" />
    <glyph glyph-name="Rcommaaccent" unicode="&#x156;" horiz-adv-x="615" 
d="M288 -195c-6 0 -9 3 -9 9v120c0 6 4 10 10 10h37c6 0 10 -4 10 -10v-42c0 -10 -1 -14 -5 -22l-32 -57c-3 -6 -6 -8 -11 -8zM543 0h-46c-6 0 -9 2 -12 9l-143 295h-10h-175c-4 0 -6 -2 -6 -6v-288c0 -6 -4 -10 -10 -10h-37c-6 0 -10 4 -10 10v660c0 6 4 10 10 10h228
c128 0 207 -72 207 -188c0 -94 -52 -159 -139 -180l148 -301c4 -6 1 -11 -5 -11zM331 358c97 0 151 48 151 134c0 85 -54 134 -151 134h-174c-4 0 -6 -2 -6 -6v-256c0 -4 2 -6 6 -6h174z" />
    <glyph glyph-name="Sacute" unicode="&#x15a;" horiz-adv-x="596" 
d="M290 -10c-89 0 -178 38 -225 79c-4 4 -5 10 -1 14l24 30c4 5 10 5 14 1c45 -35 116 -70 195 -70c109 0 176 55 176 139c0 67 -38 116 -163 132l-31 4c-133 17 -196 81 -196 180c0 118 84 191 214 191c75 0 147 -23 194 -57c5 -3 6 -9 2 -14l-20 -31c-4 -5 -9 -5 -14 -2
c-54 33 -107 50 -165 50c-97 0 -154 -54 -154 -133c0 -69 44 -114 160 -129l31 -4c138 -18 199 -82 199 -183c0 -115 -82 -197 -240 -197zM291 764h-26c-6 0 -9 4 -4 10l82 104c5 7 10 10 18 10h40c6 0 8 -5 4 -10l-96 -105c-7 -8 -10 -9 -18 -9z" />
    <glyph glyph-name="Scircumflex" unicode="&#x15c;" horiz-adv-x="596" 
d="M290 -10c-89 0 -178 38 -225 79c-4 4 -5 10 -1 14l24 30c4 5 10 5 14 1c45 -35 116 -70 195 -70c109 0 176 55 176 139c0 67 -38 116 -163 132l-31 4c-133 17 -196 81 -196 180c0 118 84 191 214 191c75 0 147 -23 194 -57c5 -3 6 -9 2 -14l-20 -31c-4 -5 -9 -5 -14 -2
c-54 33 -107 50 -165 50c-97 0 -154 -54 -154 -133c0 -69 44 -114 160 -129l31 -4c138 -18 199 -82 199 -183c0 -115 -82 -197 -240 -197zM411 754h-25c-8 0 -11 2 -17 10l-71 85h-2l-70 -85c-7 -8 -10 -10 -17 -10h-25c-6 0 -8 5 -4 10l90 123c5 7 9 9 16 9h23
c7 0 10 -2 15 -9l91 -123c4 -5 2 -10 -4 -10z" />
    <glyph glyph-name="Scaron" unicode="&#x160;" horiz-adv-x="596" 
d="M290 -10c-89 0 -178 38 -225 79c-4 4 -5 10 -1 14l24 30c4 5 10 5 14 1c45 -35 116 -70 195 -70c109 0 176 55 176 139c0 67 -38 116 -163 132l-31 4c-133 17 -196 81 -196 180c0 118 84 191 214 191c75 0 147 -23 194 -57c5 -3 6 -9 2 -14l-20 -31c-4 -5 -9 -5 -14 -2
c-54 33 -107 50 -165 50c-97 0 -154 -54 -154 -133c0 -69 44 -114 160 -129l31 -4c138 -18 199 -82 199 -183c0 -115 -82 -197 -240 -197zM309 754h-23c-7 0 -11 2 -16 9l-90 122c-4 5 -2 10 4 10h25c7 0 10 -2 17 -10l70 -85h2l71 85c6 8 9 10 17 10h25c6 0 8 -5 4 -10
l-91 -122c-5 -7 -8 -9 -15 -9z" />
    <glyph glyph-name="Scedilla" unicode="&#x15e;" horiz-adv-x="596" 
d="M266 -148h-31c-6 0 -9 4 -7 10l50 128c-85 3 -168 40 -213 79c-4 4 -5 10 -1 14l24 30c4 5 10 5 14 1c45 -35 116 -70 195 -70c109 0 176 55 176 139c0 67 -38 116 -163 132l-31 4c-133 17 -196 81 -196 180c0 118 84 191 214 191c75 0 147 -23 194 -57c5 -3 6 -9 2 -14
l-20 -31c-4 -5 -9 -5 -14 -2c-54 33 -107 50 -165 50c-97 0 -154 -54 -154 -133c0 -69 44 -114 160 -129l31 -4c138 -18 199 -82 199 -183c0 -106 -70 -184 -205 -195l-43 -130c-3 -8 -7 -10 -16 -10z" />
    <glyph glyph-name="Scommaaccent" unicode="&#x218;" horiz-adv-x="596" 
d="M279 -195c-6 0 -9 3 -9 9v120c0 6 4 10 10 10h37c6 0 10 -4 10 -10v-42c0 -10 -1 -14 -5 -22l-32 -57c-3 -6 -6 -8 -11 -8zM290 -10c-89 0 -178 38 -225 79c-4 4 -5 10 -1 14l24 30c4 5 10 5 14 1c45 -35 116 -70 195 -70c109 0 176 55 176 139c0 67 -38 116 -163 132
l-31 4c-133 17 -196 81 -196 180c0 118 84 191 214 191c75 0 147 -23 194 -57c5 -3 6 -9 2 -14l-20 -31c-4 -5 -9 -5 -14 -2c-54 33 -107 50 -165 50c-97 0 -154 -54 -154 -133c0 -69 44 -114 160 -129l31 -4c138 -18 199 -82 199 -183c0 -115 -82 -197 -240 -197z" />
    <glyph glyph-name="Tcaron" unicode="&#x164;" horiz-adv-x="525" 
d="M274 754h-23c-7 0 -11 2 -16 9l-90 122c-4 5 -2 10 4 10h25c7 0 10 -2 17 -10l70 -85h2l71 85c6 8 9 10 17 10h25c6 0 8 -5 4 -10l-91 -122c-5 -7 -8 -9 -15 -9zM281 0h-37c-6 0 -10 4 -10 10v610c0 4 -2 6 -6 6h-196c-6 0 -10 4 -10 10v34c0 6 4 10 10 10h461
c6 0 10 -4 10 -10v-34c0 -6 -4 -10 -10 -10h-196c-4 0 -6 -2 -6 -6v-610c0 -6 -4 -10 -10 -10z" />
    <glyph glyph-name="Tcommaaccent" unicode="&#x162;" horiz-adv-x="525" 
d="M243 -195c-6 0 -9 3 -9 9v120c0 6 4 10 10 10h37c6 0 10 -4 10 -10v-42c0 -10 -1 -14 -5 -22l-32 -57c-3 -6 -6 -8 -11 -8zM281 0h-37c-6 0 -10 4 -10 10v610c0 4 -2 6 -6 6h-196c-6 0 -10 4 -10 10v34c0 6 4 10 10 10h461c6 0 10 -4 10 -10v-34c0 -6 -4 -10 -10 -10
h-196c-4 0 -6 -2 -6 -6v-610c0 -6 -4 -10 -10 -10z" />
    <glyph glyph-name="uni021A" unicode="&#x21a;" horiz-adv-x="525" 
d="M243 -195c-6 0 -9 3 -9 9v120c0 6 4 10 10 10h37c6 0 10 -4 10 -10v-42c0 -10 -1 -14 -5 -22l-32 -57c-3 -6 -6 -8 -11 -8zM281 0h-37c-6 0 -10 4 -10 10v610c0 4 -2 6 -6 6h-196c-6 0 -10 4 -10 10v34c0 6 4 10 10 10h461c6 0 10 -4 10 -10v-34c0 -6 -4 -10 -10 -10
h-196c-4 0 -6 -2 -6 -6v-610c0 -6 -4 -10 -10 -10z" />
    <glyph glyph-name="Tbar" unicode="&#x166;" horiz-adv-x="525" 
d="M281 0h-37c-6 0 -10 4 -10 10v384c0 4 -2 6 -6 6h-105c-6 0 -10 4 -10 10v30c0 6 4 10 10 10h105c4 0 6 2 6 6v164c0 4 -2 6 -6 6h-196c-6 0 -10 4 -10 10v34c0 6 4 10 10 10h461c6 0 10 -4 10 -10v-34c0 -6 -4 -10 -10 -10h-196c-4 0 -6 -2 -6 -6v-164c0 -4 2 -6 6 -6
h105c6 0 10 -4 10 -10v-30c0 -6 -4 -10 -10 -10h-105c-4 0 -6 -2 -6 -6v-384c0 -6 -4 -10 -10 -10z" />
    <glyph glyph-name="Thorn" unicode="&#xde;" horiz-adv-x="585" 
d="M141 0h-37c-6 0 -10 4 -10 10v660c0 6 4 10 10 10h37c6 0 10 -4 10 -10v-125c0 -4 2 -6 6 -6h174c130 0 209 -73 209 -192s-79 -193 -209 -193h-174c-4 0 -6 -2 -6 -6v-138c0 -6 -4 -10 -10 -10zM329 208c100 0 154 52 154 139s-54 138 -154 138h-172c-4 0 -6 -2 -6 -6
v-265c0 -4 2 -6 6 -6h172z" />
    <glyph glyph-name="Ugrave" unicode="&#xd9;" horiz-adv-x="635" 
d="M346 764h-26c-8 0 -11 1 -18 9l-96 105c-4 5 -2 10 4 10h40c8 0 13 -3 18 -10l82 -104c5 -6 2 -10 -4 -10zM144 670v-436c0 -128 65 -190 173 -190c109 0 174 62 174 190v436c0 6 4 10 10 10h37c6 0 10 -4 10 -10v-435c0 -166 -90 -245 -231 -245
c-140 0 -230 79 -230 245v435c0 6 4 10 10 10h37c6 0 10 -4 10 -10z" />
    <glyph glyph-name="Uacute" unicode="&#xda;" horiz-adv-x="635" 
d="M312 764h-26c-6 0 -9 4 -4 10l82 104c5 7 10 10 18 10h40c6 0 8 -5 4 -10l-96 -105c-7 -8 -10 -9 -18 -9zM144 670v-436c0 -128 65 -190 173 -190c109 0 174 62 174 190v436c0 6 4 10 10 10h37c6 0 10 -4 10 -10v-435c0 -166 -90 -245 -231 -245c-140 0 -230 79 -230 245
v435c0 6 4 10 10 10h37c6 0 10 -4 10 -10z" />
    <glyph glyph-name="Ucircumflex" unicode="&#xdb;" horiz-adv-x="635" 
d="M144 670v-436c0 -128 65 -190 173 -190c109 0 174 62 174 190v436c0 6 4 10 10 10h37c6 0 10 -4 10 -10v-435c0 -166 -90 -245 -231 -245c-140 0 -230 79 -230 245v435c0 6 4 10 10 10h37c6 0 10 -4 10 -10zM431 754h-25c-8 0 -11 2 -17 10l-71 85h-2l-70 -85
c-7 -8 -10 -10 -17 -10h-25c-6 0 -8 5 -4 10l90 123c5 7 9 9 16 9h23c7 0 10 -2 15 -9l91 -123c4 -5 2 -10 -4 -10z" />
    <glyph glyph-name="Utilde" unicode="&#x168;" horiz-adv-x="635" 
d="M371 782c-24 0 -42 10 -60 21c-16 10 -31 18 -49 18c-23 0 -39 -14 -58 -33c-5 -4 -9 -2 -9 3v30c0 6 2 9 8 15c16 18 36 30 61 30c24 0 43 -10 60 -20c16 -11 31 -18 49 -18c23 0 40 13 59 33c4 4 8 2 8 -3v-30c0 -6 -1 -9 -7 -16c-17 -17 -37 -30 -62 -30zM144 670
v-436c0 -128 65 -190 173 -190c109 0 174 62 174 190v436c0 6 4 10 10 10h37c6 0 10 -4 10 -10v-435c0 -166 -90 -245 -231 -245c-140 0 -230 79 -230 245v435c0 6 4 10 10 10h37c6 0 10 -4 10 -10z" />
    <glyph glyph-name="Udieresis" unicode="&#xdc;" horiz-adv-x="635" 
d="M437 786h-39c-6 0 -10 4 -10 10v56c0 6 4 10 10 10h39c6 0 10 -4 10 -10v-56c0 -6 -4 -10 -10 -10zM237 786h-39c-6 0 -10 4 -10 10v56c0 6 4 10 10 10h39c6 0 10 -4 10 -10v-56c0 -6 -4 -10 -10 -10zM144 670v-436c0 -128 65 -190 173 -190c109 0 174 62 174 190v436
c0 6 4 10 10 10h37c6 0 10 -4 10 -10v-435c0 -166 -90 -245 -231 -245c-140 0 -230 79 -230 245v435c0 6 4 10 10 10h37c6 0 10 -4 10 -10z" />
    <glyph glyph-name="Umacron" unicode="&#x16a;" horiz-adv-x="635" 
d="M437 800h-240c-6 0 -10 4 -10 10v26c0 6 4 10 10 10h240c6 0 10 -4 10 -10v-26c0 -6 -4 -10 -10 -10zM144 670v-436c0 -128 65 -190 173 -190c109 0 174 62 174 190v436c0 6 4 10 10 10h37c6 0 10 -4 10 -10v-435c0 -166 -90 -245 -231 -245c-140 0 -230 79 -230 245v435
c0 6 4 10 10 10h37c6 0 10 -4 10 -10z" />
    <glyph glyph-name="Ubreve" unicode="&#x16c;" horiz-adv-x="635" 
d="M317 768c-68 0 -116 42 -124 103c-1 6 3 10 9 10h19c7 0 10 -3 12 -10c11 -39 40 -59 84 -59c45 0 74 20 86 59c2 7 4 10 11 10h19c6 0 10 -4 9 -10c-9 -61 -56 -103 -125 -103zM144 670v-436c0 -128 65 -190 173 -190c109 0 174 62 174 190v436c0 6 4 10 10 10h37
c6 0 10 -4 10 -10v-435c0 -166 -90 -245 -231 -245c-140 0 -230 79 -230 245v435c0 6 4 10 10 10h37c6 0 10 -4 10 -10z" />
    <glyph glyph-name="Uring" unicode="&#x16e;" horiz-adv-x="635" 
d="M144 670v-436c0 -128 65 -190 173 -190c109 0 174 62 174 190v436c0 6 4 10 10 10h37c6 0 10 -4 10 -10v-435c0 -166 -90 -245 -231 -245c-140 0 -230 79 -230 245v435c0 6 4 10 10 10h37c6 0 10 -4 10 -10zM405 826c0 -51 -37 -88 -88 -88s-88 37 -88 88s37 88 88 88
s88 -37 88 -88zM370 826c0 32 -21 56 -53 56s-53 -24 -53 -56s21 -56 53 -56s53 24 53 56z" />
    <glyph glyph-name="Uhungarumlaut" unicode="&#x170;" horiz-adv-x="635" 
d="M144 670v-436c0 -128 65 -190 173 -190c109 0 174 62 174 190v436c0 6 4 10 10 10h37c6 0 10 -4 10 -10v-435c0 -166 -90 -245 -231 -245c-140 0 -230 79 -230 245v435c0 6 4 10 10 10h37c6 0 10 -4 10 -10zM386 764h-25c-6 0 -8 5 -4 10l67 105c5 7 8 10 16 10h34
c6 0 8 -5 4 -10l-76 -105c-5 -7 -8 -10 -16 -10zM262 764h-25c-6 0 -8 5 -4 10l67 105c4 7 8 10 16 10h33c6 0 8 -5 4 -10l-75 -105c-5 -7 -9 -10 -16 -10z" />
    <glyph glyph-name="Uogonek" unicode="&#x172;" horiz-adv-x="635" 
d="M325 -172c-42 0 -70 25 -70 68c0 27 13 55 49 94c-133 5 -217 84 -217 245v435c0 6 4 10 10 10h37c6 0 10 -4 10 -10v-436c0 -128 65 -190 173 -190c109 0 174 62 174 190v436c0 6 4 10 10 10h37c6 0 10 -4 10 -10v-435c0 -149 -73 -228 -190 -242
c-46 -50 -54 -70 -54 -90c0 -18 11 -28 29 -28c9 0 18 3 28 9c5 3 10 2 13 -3l11 -21c2 -5 1 -9 -4 -13c-13 -10 -35 -19 -56 -19z" />
    <glyph glyph-name="Wacute" unicode="&#x1e82;" horiz-adv-x="817" 
d="M421 764h-26c-6 0 -9 4 -4 10l82 104c5 7 10 10 18 10h40c6 0 8 -5 4 -10l-96 -105c-7 -8 -10 -9 -18 -9zM613 0h-33c-6 0 -9 3 -11 10l-159 557h-2l-160 -557c-2 -7 -5 -10 -11 -10h-32c-6 0 -10 4 -12 10l-161 659c-2 7 1 11 8 11h36c8 0 12 -3 13 -10l134 -560h2
l157 560c2 7 5 10 12 10h30c7 0 10 -3 12 -10l159 -560h2l131 560c2 8 5 10 13 10h36c7 0 10 -4 8 -11l-161 -659c-1 -6 -5 -10 -11 -10z" />
    <glyph glyph-name="Wcircumflex" unicode="&#x174;" horiz-adv-x="817" 
d="M613 0h-33c-6 0 -9 3 -11 10l-159 557h-2l-160 -557c-2 -7 -5 -10 -11 -10h-32c-6 0 -10 4 -12 10l-161 659c-2 7 1 11 8 11h36c8 0 12 -3 13 -10l134 -560h2l157 560c2 7 5 10 12 10h30c7 0 10 -3 12 -10l159 -560h2l131 560c2 8 5 10 13 10h36c7 0 10 -4 8 -11
l-161 -659c-1 -6 -5 -10 -11 -10zM522 754h-25c-8 0 -11 2 -17 10l-71 85h-2l-70 -85c-7 -8 -10 -10 -17 -10h-25c-6 0 -8 5 -4 10l90 123c5 7 9 9 16 9h23c7 0 10 -2 15 -9l91 -123c4 -5 2 -10 -4 -10z" />
    <glyph glyph-name="Wdieresis" unicode="&#x1e84;" horiz-adv-x="817" 
d="M527 786h-39c-6 0 -10 4 -10 10v56c0 6 4 10 10 10h39c6 0 10 -4 10 -10v-56c0 -6 -4 -10 -10 -10zM327 786h-39c-6 0 -10 4 -10 10v56c0 6 4 10 10 10h39c6 0 10 -4 10 -10v-56c0 -6 -4 -10 -10 -10zM613 0h-33c-6 0 -9 3 -11 10l-159 557h-2l-160 -557
c-2 -7 -5 -10 -11 -10h-32c-6 0 -10 4 -12 10l-161 659c-2 7 1 11 8 11h36c8 0 12 -3 13 -10l134 -560h2l157 560c2 7 5 10 12 10h30c7 0 10 -3 12 -10l159 -560h2l131 560c2 8 5 10 13 10h36c7 0 10 -4 8 -11l-161 -659c-1 -6 -5 -10 -11 -10z" />
    <glyph glyph-name="Wgrave" unicode="&#x1e80;" horiz-adv-x="817" 
d="M423 764h-26c-8 0 -11 1 -18 9l-96 105c-4 5 -2 10 4 10h40c8 0 13 -3 18 -10l82 -104c5 -6 2 -10 -4 -10zM613 0h-33c-6 0 -9 3 -11 10l-159 557h-2l-160 -557c-2 -7 -5 -10 -11 -10h-32c-6 0 -10 4 -12 10l-161 659c-2 7 1 11 8 11h36c8 0 12 -3 13 -10l134 -560h2
l157 560c2 7 5 10 12 10h30c7 0 10 -3 12 -10l159 -560h2l131 560c2 8 5 10 13 10h36c7 0 10 -4 8 -11l-161 -659c-1 -6 -5 -10 -11 -10z" />
    <glyph glyph-name="Yacute" unicode="&#xdd;" horiz-adv-x="515" 
d="M276 0h-37c-6 0 -10 4 -10 10v269l-204 390c-2 5 1 11 8 11h39c8 0 11 -2 15 -10l171 -325h3l168 325c4 8 7 10 15 10h38c8 0 10 -6 8 -11l-204 -390v-269c0 -6 -4 -10 -10 -10zM261 764h-26c-6 0 -9 4 -4 10l82 104c5 7 10 10 18 10h40c6 0 8 -5 4 -10l-96 -105
c-7 -8 -10 -9 -18 -9z" />
    <glyph glyph-name="Ycircumflex" unicode="&#x176;" horiz-adv-x="515" 
d="M276 0h-37c-6 0 -10 4 -10 10v269l-204 390c-2 5 1 11 8 11h39c8 0 11 -2 15 -10l171 -325h3l168 325c4 8 7 10 15 10h38c8 0 10 -6 8 -11l-204 -390v-269c0 -6 -4 -10 -10 -10zM371 754h-25c-8 0 -11 2 -17 10l-71 85h-2l-70 -85c-7 -8 -10 -10 -17 -10h-25
c-6 0 -8 5 -4 10l90 123c5 7 9 9 16 9h23c7 0 10 -2 15 -9l91 -123c4 -5 2 -10 -4 -10z" />
    <glyph glyph-name="Ydieresis" unicode="&#x178;" horiz-adv-x="515" 
d="M276 0h-37c-6 0 -10 4 -10 10v269l-204 390c-2 5 1 11 8 11h39c8 0 11 -2 15 -10l171 -325h3l168 325c4 8 7 10 15 10h38c8 0 10 -6 8 -11l-204 -390v-269c0 -6 -4 -10 -10 -10zM377 786h-39c-6 0 -10 4 -10 10v56c0 6 4 10 10 10h39c6 0 10 -4 10 -10v-56
c0 -6 -4 -10 -10 -10zM177 786h-39c-6 0 -10 4 -10 10v56c0 6 4 10 10 10h39c6 0 10 -4 10 -10v-56c0 -6 -4 -10 -10 -10z" />
    <glyph glyph-name="Ygrave" unicode="&#x1ef2;" horiz-adv-x="515" 
d="M276 0h-37c-6 0 -10 4 -10 10v269l-204 390c-2 5 1 11 8 11h39c8 0 11 -2 15 -10l171 -325h3l168 325c4 8 7 10 15 10h38c8 0 10 -6 8 -11l-204 -390v-269c0 -6 -4 -10 -10 -10zM283 764h-26c-8 0 -11 1 -18 9l-96 105c-4 5 -2 10 4 10h40c8 0 13 -3 18 -10l82 -104
c5 -6 2 -10 -4 -10z" />
    <glyph glyph-name="Zacute" unicode="&#x179;" horiz-adv-x="540" 
d="M476 0h-413c-6 0 -10 4 -10 10v33c0 5 2 10 5 15l361 567v1h-343c-6 0 -10 4 -10 10v34c0 6 4 10 10 10h400c6 0 10 -4 10 -10v-33c0 -5 -1 -9 -5 -15l-361 -567v-1h356c6 0 10 -4 10 -10v-34c0 -6 -4 -10 -10 -10zM258 764h-26c-6 0 -9 4 -4 10l82 104c5 7 10 10 18 10
h40c6 0 8 -5 4 -10l-96 -105c-7 -8 -10 -9 -18 -9z" />
    <glyph glyph-name="Zcaron" unicode="&#x17d;" horiz-adv-x="540" 
d="M282 754h-23c-7 0 -11 2 -16 9l-90 122c-4 5 -2 10 4 10h25c7 0 10 -2 17 -10l70 -85h2l71 85c6 8 9 10 17 10h25c6 0 8 -5 4 -10l-91 -122c-5 -7 -8 -9 -15 -9zM476 0h-413c-6 0 -10 4 -10 10v33c0 5 2 10 5 15l361 567v1h-343c-6 0 -10 4 -10 10v34c0 6 4 10 10 10h400
c6 0 10 -4 10 -10v-33c0 -5 -1 -9 -5 -15l-361 -567v-1h356c6 0 10 -4 10 -10v-34c0 -6 -4 -10 -10 -10z" />
    <glyph glyph-name="Zdotaccent" unicode="&#x17b;" horiz-adv-x="540" 
d="M292 786h-44c-6 0 -10 4 -10 10v56c0 6 4 10 10 10h44c6 0 10 -4 10 -10v-56c0 -6 -4 -10 -10 -10zM476 0h-413c-6 0 -10 4 -10 10v33c0 5 2 10 5 15l361 567v1h-343c-6 0 -10 4 -10 10v34c0 6 4 10 10 10h400c6 0 10 -4 10 -10v-33c0 -5 -1 -9 -5 -15l-361 -567v-1h356
c6 0 10 -4 10 -10v-34c0 -6 -4 -10 -10 -10z" />
    <glyph glyph-name="agrave" unicode="&#xe0;" horiz-adv-x="513" 
d="M250 437c-58 0 -92 -13 -120 -36c-5 -4 -11 -4 -15 1l-17 25c-3 5 -2 10 3 14c34 29 85 46 152 46c124 0 174 -41 174 -158v-319c0 -6 -4 -10 -10 -10h-32c-6 0 -10 4 -10 10v50h-1c-19 -40 -70 -70 -148 -70c-96 0 -160 48 -160 141c0 95 65 141 181 141h121
c4 0 6 2 6 6v49c0 78 -27 110 -124 110zM237 40c82 0 137 42 137 107v73c0 4 -2 6 -6 6h-114c-95 0 -135 -31 -135 -94c0 -60 42 -92 118 -92zM307 558h-25c-8 0 -12 3 -18 10l-88 122c-4 5 -1 10 5 10h38c8 0 12 -3 16 -10l77 -122c4 -6 1 -10 -5 -10z" />
    <glyph glyph-name="aacute" unicode="&#xe1;" horiz-adv-x="513" 
d="M250 437c-58 0 -92 -13 -120 -36c-5 -4 -11 -4 -15 1l-17 25c-3 5 -2 10 3 14c34 29 85 46 152 46c124 0 174 -41 174 -158v-319c0 -6 -4 -10 -10 -10h-32c-6 0 -10 4 -10 10v50h-1c-19 -40 -70 -70 -148 -70c-96 0 -160 48 -160 141c0 95 65 141 181 141h121
c4 0 6 2 6 6v49c0 78 -27 110 -124 110zM237 40c82 0 137 42 137 107v73c0 4 -2 6 -6 6h-114c-95 0 -135 -31 -135 -94c0 -60 42 -92 118 -92zM261 558h-25c-6 0 -9 4 -6 10l77 122c4 7 9 10 17 10h38c6 0 9 -5 5 -10l-88 -122c-6 -7 -10 -10 -18 -10z" />
    <glyph glyph-name="acircumflex" unicode="&#xe2;" horiz-adv-x="513" 
d="M250 437c-58 0 -92 -13 -120 -36c-5 -4 -11 -4 -15 1l-17 25c-3 5 -2 10 3 14c34 29 85 46 152 46c124 0 174 -41 174 -158v-319c0 -6 -4 -10 -10 -10h-32c-6 0 -10 4 -10 10v50h-1c-19 -40 -70 -70 -148 -70c-96 0 -160 48 -160 141c0 95 65 141 181 141h121
c4 0 6 2 6 6v49c0 78 -27 110 -124 110zM237 40c82 0 137 42 137 107v73c0 4 -2 6 -6 6h-114c-95 0 -135 -31 -135 -94c0 -60 42 -92 118 -92zM370 558h-25c-8 0 -11 2 -17 10l-71 85h-2l-70 -85c-7 -8 -10 -10 -17 -10h-25c-6 0 -8 5 -4 10l90 123c5 7 9 9 16 9h23
c7 0 10 -2 15 -9l91 -123c4 -5 2 -10 -4 -10z" />
    <glyph glyph-name="atilde" unicode="&#xe3;" horiz-adv-x="513" 
d="M250 437c-58 0 -92 -13 -120 -36c-5 -4 -11 -4 -15 1l-17 25c-3 5 -2 10 3 14c34 29 85 46 152 46c124 0 174 -41 174 -158v-319c0 -6 -4 -10 -10 -10h-32c-6 0 -10 4 -10 10v50h-1c-19 -40 -70 -70 -148 -70c-96 0 -160 48 -160 141c0 95 65 141 181 141h121
c4 0 6 2 6 6v49c0 78 -27 110 -124 110zM237 40c82 0 137 42 137 107v73c0 4 -2 6 -6 6h-114c-95 0 -135 -31 -135 -94c0 -60 42 -92 118 -92zM309 596c-24 0 -42 10 -60 21c-16 10 -31 18 -49 18c-23 0 -39 -14 -58 -33c-5 -4 -9 -2 -9 3v30c0 6 2 9 8 15
c16 18 36 30 61 30c24 0 43 -10 60 -20c16 -11 31 -18 49 -18c23 0 40 13 59 33c4 4 8 2 8 -3v-30c0 -6 -1 -9 -7 -16c-17 -17 -37 -30 -62 -30z" />
    <glyph glyph-name="adieresis" unicode="&#xe4;" horiz-adv-x="513" 
d="M250 437c-58 0 -92 -13 -120 -36c-5 -4 -11 -4 -15 1l-17 25c-3 5 -2 10 3 14c34 29 85 46 152 46c124 0 174 -41 174 -158v-319c0 -6 -4 -10 -10 -10h-32c-6 0 -10 4 -10 10v50h-1c-19 -40 -70 -70 -148 -70c-96 0 -160 48 -160 141c0 95 65 141 181 141h121
c4 0 6 2 6 6v49c0 78 -27 110 -124 110zM237 40c82 0 137 42 137 107v73c0 4 -2 6 -6 6h-114c-95 0 -135 -31 -135 -94c0 -60 42 -92 118 -92zM375 604h-40c-6 0 -10 4 -10 10v56c0 6 4 10 10 10h40c6 0 10 -4 10 -10v-56c0 -6 -4 -10 -10 -10zM176 604h-40
c-6 0 -10 4 -10 10v56c0 6 4 10 10 10h40c6 0 10 -4 10 -10v-56c0 -6 -4 -10 -10 -10z" />
    <glyph glyph-name="amacron" unicode="&#x101;" horiz-adv-x="513" 
d="M250 437c-58 0 -92 -13 -120 -36c-5 -4 -11 -4 -15 1l-17 25c-3 5 -2 10 3 14c34 29 85 46 152 46c124 0 174 -41 174 -158v-319c0 -6 -4 -10 -10 -10h-32c-6 0 -10 4 -10 10v50h-1c-19 -40 -70 -70 -148 -70c-96 0 -160 48 -160 141c0 95 65 141 181 141h121
c4 0 6 2 6 6v49c0 78 -27 110 -124 110zM237 40c82 0 137 42 137 107v73c0 4 -2 6 -6 6h-114c-95 0 -135 -31 -135 -94c0 -60 42 -92 118 -92zM376 618h-240c-6 0 -10 4 -10 10v26c0 6 4 10 10 10h240c6 0 10 -4 10 -10v-26c0 -6 -4 -10 -10 -10z" />
    <glyph glyph-name="abreve" unicode="&#x103;" horiz-adv-x="513" 
d="M250 437c-58 0 -92 -13 -120 -36c-5 -4 -11 -4 -15 1l-17 25c-3 5 -2 10 3 14c34 29 85 46 152 46c124 0 174 -41 174 -158v-319c0 -6 -4 -10 -10 -10h-32c-6 0 -10 4 -10 10v50h-1c-19 -40 -70 -70 -148 -70c-96 0 -160 48 -160 141c0 95 65 141 181 141h121
c4 0 6 2 6 6v49c0 78 -27 110 -124 110zM237 40c82 0 137 42 137 107v73c0 4 -2 6 -6 6h-114c-95 0 -135 -31 -135 -94c0 -60 42 -92 118 -92zM256 570c-68 0 -116 43 -124 104c-1 6 3 10 9 10h19c7 0 10 -4 12 -10c11 -39 40 -60 84 -60c45 0 74 21 86 60c2 6 4 10 11 10
h19c6 0 10 -4 9 -10c-9 -61 -56 -104 -125 -104z" />
    <glyph glyph-name="aring" unicode="&#xe5;" horiz-adv-x="513" 
d="M250 437c-58 0 -92 -13 -120 -36c-5 -4 -11 -4 -15 1l-17 25c-3 5 -2 10 3 14c34 29 85 46 152 46c124 0 174 -41 174 -158v-319c0 -6 -4 -10 -10 -10h-32c-6 0 -10 4 -10 10v50h-1c-19 -40 -70 -70 -148 -70c-96 0 -160 48 -160 141c0 95 65 141 181 141h121
c4 0 6 2 6 6v49c0 78 -27 110 -124 110zM237 40c82 0 137 42 137 107v73c0 4 -2 6 -6 6h-114c-95 0 -135 -31 -135 -94c0 -60 42 -92 118 -92zM346 629c0 -51 -37 -88 -88 -88s-88 37 -88 88s37 88 88 88s88 -37 88 -88zM311 629c0 32 -21 56 -53 56s-53 -24 -53 -56
s21 -56 53 -56s53 24 53 56z" />
    <glyph glyph-name="aringacute" unicode="&#x1fb;" horiz-adv-x="513" 
d="M268 765h-26c-6 0 -8 5 -4 10l81 103c5 7 9 10 18 10h39c6 0 9 -5 5 -10l-95 -104c-7 -8 -11 -9 -18 -9zM250 437c-58 0 -92 -13 -120 -36c-5 -4 -11 -4 -15 1l-17 25c-3 5 -2 10 3 14c34 29 85 46 152 46c124 0 174 -41 174 -158v-319c0 -6 -4 -10 -10 -10h-32
c-6 0 -10 4 -10 10v50h-1c-19 -40 -70 -70 -148 -70c-96 0 -160 48 -160 141c0 95 65 141 181 141h121c4 0 6 2 6 6v49c0 78 -27 110 -124 110zM237 40c82 0 137 42 137 107v73c0 4 -2 6 -6 6h-114c-95 0 -135 -31 -135 -94c0 -60 42 -92 118 -92zM346 629
c0 -51 -37 -88 -88 -88s-88 37 -88 88s37 88 88 88s88 -37 88 -88zM311 629c0 32 -21 56 -53 56s-53 -24 -53 -56s21 -56 53 -56s53 24 53 56z" />
    <glyph glyph-name="aogonek" unicode="&#x105;" horiz-adv-x="513" 
d="M375 9v51h-1c-19 -40 -70 -70 -148 -70c-96 0 -160 48 -160 141c0 95 65 141 181 141h121c4 0 6 2 6 6v49c0 78 -27 110 -124 110c-58 0 -92 -13 -120 -36c-5 -4 -11 -4 -15 1l-17 25c-3 5 -2 10 3 14c34 29 85 46 152 46c124 0 174 -41 174 -158v-319c0 -5 -1 -7 -5 -10
c-68 -51 -83 -76 -83 -97c0 -18 11 -28 29 -28c9 0 18 3 28 9c5 3 10 2 13 -3l11 -21c2 -5 1 -9 -4 -13c-13 -10 -35 -19 -56 -19c-42 0 -70 25 -70 66c0 33 17 67 85 115zM237 40c82 0 137 42 137 107v73c0 4 -2 6 -6 6h-114c-95 0 -135 -31 -135 -94c0 -60 42 -92 118 -92
z" />
    <glyph glyph-name="ae" unicode="&#xe6;" horiz-adv-x="814" 
d="M250 437c-58 0 -92 -13 -120 -36c-5 -4 -11 -4 -15 1l-17 25c-3 5 -2 10 3 14c34 29 85 46 152 46c86 0 139 -22 157 -80h2c31 53 83 80 151 80c86 0 152 -44 178 -124c10 -30 14 -61 14 -127c0 -6 -4 -10 -11 -10h-311c-4 0 -6 -3 -6 -7c0 -40 3 -62 10 -84
c22 -63 70 -93 135 -93c62 0 105 26 133 61c4 5 9 6 14 2l23 -21c5 -4 5 -9 1 -14c-35 -47 -95 -80 -174 -80c-86 0 -139 39 -167 93h-1c-25 -59 -82 -93 -175 -93c-96 0 -160 48 -160 141c0 95 65 141 181 141h121c4 0 6 2 6 6v49c0 78 -27 110 -124 110zM433 272h261
c4 0 6 2 6 6c0 29 -3 50 -9 69c-19 59 -65 90 -128 90c-62 0 -108 -31 -127 -90c-6 -19 -9 -40 -9 -69c0 -4 2 -6 6 -6zM237 40c82 0 137 42 137 107v73c0 4 -2 6 -6 6h-114c-95 0 -135 -31 -135 -94c0 -60 42 -92 118 -92z" />
    <glyph glyph-name="aeacute" unicode="&#x1fd;" horiz-adv-x="814" 
d="M426 558h-25c-6 0 -9 4 -6 10l77 122c4 7 9 10 17 10h38c6 0 9 -5 5 -10l-88 -122c-6 -7 -10 -10 -18 -10zM250 437c-58 0 -92 -13 -120 -36c-5 -4 -11 -4 -15 1l-17 25c-3 5 -2 10 3 14c34 29 85 46 152 46c86 0 139 -22 157 -80h2c31 53 83 80 151 80
c86 0 152 -44 178 -124c10 -30 14 -61 14 -127c0 -6 -4 -10 -11 -10h-311c-4 0 -6 -3 -6 -7c0 -40 3 -62 10 -84c22 -63 70 -93 135 -93c62 0 105 26 133 61c4 5 9 6 14 2l23 -21c5 -4 5 -9 1 -14c-35 -47 -95 -80 -174 -80c-86 0 -139 39 -167 93h-1
c-25 -59 -82 -93 -175 -93c-96 0 -160 48 -160 141c0 95 65 141 181 141h121c4 0 6 2 6 6v49c0 78 -27 110 -124 110zM433 272h261c4 0 6 2 6 6c0 29 -3 50 -9 69c-19 59 -65 90 -128 90c-62 0 -108 -31 -127 -90c-6 -19 -9 -40 -9 -69c0 -4 2 -6 6 -6zM237 40
c82 0 137 42 137 107v73c0 4 -2 6 -6 6h-114c-95 0 -135 -31 -135 -94c0 -60 42 -92 118 -92z" />
    <glyph glyph-name="cacute" unicode="&#x107;" horiz-adv-x="470" 
d="M248 558h-25c-6 0 -9 4 -6 10l77 122c4 7 9 10 17 10h38c6 0 9 -5 5 -10l-88 -122c-6 -7 -10 -10 -18 -10zM60 238c0 57 6 95 15 125c25 78 90 124 178 124c75 0 126 -32 161 -90c3 -5 2 -10 -3 -13l-28 -18c-5 -3 -10 -1 -13 4c-28 44 -61 65 -117 65
c-62 0 -106 -31 -125 -90c-9 -26 -13 -58 -13 -107s4 -80 13 -106c19 -59 63 -90 125 -90c56 0 89 21 117 65c3 5 8 7 13 4l28 -18c5 -3 6 -8 3 -13c-35 -58 -86 -90 -161 -90c-88 0 -153 46 -178 124c-9 30 -15 67 -15 124z" />
    <glyph glyph-name="ccircumflex" unicode="&#x109;" horiz-adv-x="470" 
d="M367 558h-25c-8 0 -11 2 -17 10l-71 85h-2l-70 -85c-7 -8 -10 -10 -17 -10h-25c-6 0 -8 5 -4 10l90 123c5 7 9 9 16 9h23c7 0 10 -2 15 -9l91 -123c4 -5 2 -10 -4 -10zM60 238c0 57 6 95 15 125c25 78 90 124 178 124c75 0 126 -32 161 -90c3 -5 2 -10 -3 -13l-28 -18
c-5 -3 -10 -1 -13 4c-28 44 -61 65 -117 65c-62 0 -106 -31 -125 -90c-9 -26 -13 -58 -13 -107s4 -80 13 -106c19 -59 63 -90 125 -90c56 0 89 21 117 65c3 5 8 7 13 4l28 -18c5 -3 6 -8 3 -13c-35 -58 -86 -90 -161 -90c-88 0 -153 46 -178 124c-9 30 -15 67 -15 124z" />
    <glyph glyph-name="ccaron" unicode="&#x10d;" horiz-adv-x="470" 
d="M264 558h-23c-7 0 -11 2 -16 9l-90 122c-4 5 -2 10 4 10h25c7 0 10 -2 17 -10l70 -85h2l71 85c6 8 9 10 17 10h25c6 0 8 -5 4 -10l-91 -122c-5 -7 -8 -9 -15 -9zM60 238c0 57 6 95 15 125c25 78 90 124 178 124c75 0 126 -32 161 -90c3 -5 2 -10 -3 -13l-28 -18
c-5 -3 -10 -1 -13 4c-28 44 -61 65 -117 65c-62 0 -106 -31 -125 -90c-9 -26 -13 -58 -13 -107s4 -80 13 -106c19 -59 63 -90 125 -90c56 0 89 21 117 65c3 5 8 7 13 4l28 -18c5 -3 6 -8 3 -13c-35 -58 -86 -90 -161 -90c-88 0 -153 46 -178 124c-9 30 -15 67 -15 124z" />
    <glyph glyph-name="cdotaccent" unicode="&#x10b;" horiz-adv-x="470" 
d="M60 238c0 57 6 95 15 125c25 78 90 124 178 124c75 0 126 -32 161 -90c3 -5 2 -10 -3 -13l-28 -18c-5 -3 -10 -1 -13 4c-28 44 -61 65 -117 65c-62 0 -106 -31 -125 -90c-9 -26 -13 -58 -13 -107s4 -80 13 -106c19 -59 63 -90 125 -90c56 0 89 21 117 65c3 5 8 7 13 4
l28 -18c5 -3 6 -8 3 -13c-35 -58 -86 -90 -161 -90c-88 0 -153 46 -178 124c-9 30 -15 67 -15 124zM274 604h-44c-6 0 -10 4 -10 10v56c0 6 4 10 10 10h44c6 0 10 -4 10 -10v-56c0 -6 -4 -10 -10 -10z" />
    <glyph glyph-name="ccedilla" unicode="&#xe7;" horiz-adv-x="470" 
d="M217 -148h-31c-6 0 -9 4 -7 10l50 130c-76 7 -132 51 -154 122c-9 30 -15 67 -15 124s6 95 15 125c25 78 90 124 178 124c75 0 126 -32 161 -90c3 -5 2 -10 -3 -13l-28 -18c-5 -3 -10 -1 -13 4c-28 44 -61 65 -117 65c-62 0 -106 -31 -125 -90c-9 -26 -13 -58 -13 -107
s4 -80 13 -106c19 -59 63 -90 125 -90c56 0 89 21 117 65c3 5 8 7 13 4l28 -18c5 -3 6 -8 3 -13c-32 -52 -76 -83 -138 -89l-43 -129c-3 -8 -7 -10 -16 -10z" />
    <glyph glyph-name="dcaron" unicode="&#x10f;" horiz-adv-x="531" 
d="M505 535c-6 0 -9 4 -9 10v125c0 6 4 10 10 10h37c6 0 10 -4 10 -10v-48c0 -9 -1 -13 -5 -21l-32 -57c-3 -6 -6 -9 -11 -9zM429 0h-34c-6 0 -10 4 -10 10v58h-1c-23 -45 -66 -78 -145 -78c-84 0 -138 38 -162 114c-13 39 -17 81 -17 134c0 54 4 96 17 135
c24 76 78 114 162 114c79 0 122 -33 145 -78h1v261c0 6 4 10 10 10h34c6 0 10 -4 10 -10v-660c0 -6 -4 -10 -10 -10zM250 42c60 0 104 28 122 84c9 26 13 60 13 112s-4 87 -13 113c-18 56 -62 84 -122 84c-62 0 -104 -30 -122 -84c-10 -30 -13 -70 -13 -113
c0 -42 3 -82 13 -112c18 -54 60 -84 122 -84z" />
    <glyph glyph-name="dcroat" unicode="&#x111;" horiz-adv-x="531" 
d="M429 0h-34c-6 0 -10 4 -10 10v58h-1c-23 -45 -66 -78 -145 -78c-84 0 -138 38 -162 114c-13 39 -17 81 -17 134c0 54 4 96 17 135c24 76 78 114 162 114c79 0 122 -33 145 -78h1v148c0 4 -2 6 -6 6h-131c-6 0 -10 4 -10 10v26c0 6 4 10 10 10h131c4 0 6 2 6 6v55
c0 6 4 10 10 10h34c6 0 10 -4 10 -10v-55c0 -4 2 -6 6 -6h30c6 0 10 -4 10 -10v-26c0 -6 -4 -10 -10 -10h-30c-4 0 -6 -2 -6 -6v-547c0 -6 -4 -10 -10 -10zM250 42c60 0 104 28 122 84c9 26 13 60 13 112s-4 87 -13 113c-18 56 -62 84 -122 84c-62 0 -104 -30 -122 -84
c-10 -30 -13 -70 -13 -113c0 -42 3 -82 13 -112c18 -54 60 -84 122 -84z" />
    <glyph glyph-name="eth" unicode="&#xf0;" horiz-adv-x="509" 
d="M369 599l-76 -23l39 -47c84 -104 117 -179 117 -285c0 -65 -6 -100 -15 -130c-26 -79 -91 -124 -179 -124c-89 0 -153 45 -179 124c-10 30 -16 67 -16 119c0 53 6 90 16 120c25 77 87 122 166 122c33 0 58 -7 88 -27h1l-90 112l-96 -29c-7 -2 -13 2 -14 7l-7 25
c-1 6 2 10 8 12l78 23l-57 72c-4 5 -1 10 5 10h42c8 0 12 -4 17 -10l45 -56l94 28c7 2 12 0 13 -6l7 -24c1 -6 -1 -11 -7 -13zM255 42c61 0 107 31 126 88c9 27 13 57 13 103c0 47 -4 75 -13 101c-19 57 -64 91 -126 91s-108 -32 -127 -89c-9 -26 -13 -56 -13 -103
c0 -46 4 -76 13 -103c19 -57 65 -88 127 -88z" />
    <glyph glyph-name="egrave" unicode="&#xe8;" horiz-adv-x="502" 
d="M257 -10c-93 0 -156 44 -183 126c-9 29 -14 62 -14 123c0 60 5 95 14 124c26 80 91 124 177 124s152 -44 178 -124c10 -30 14 -61 14 -127c0 -6 -4 -10 -11 -10h-311c-4 0 -6 -3 -6 -7c0 -40 3 -62 10 -84c22 -63 70 -93 135 -93c62 0 105 26 133 61c4 5 9 6 14 2l23 -21
c5 -4 5 -9 1 -14c-35 -47 -95 -80 -174 -80zM121 272h261c4 0 6 2 6 6c0 29 -3 50 -9 69c-19 59 -65 90 -128 90c-62 0 -108 -31 -127 -90c-6 -19 -9 -40 -9 -69c0 -4 2 -6 6 -6zM280 558h-25c-8 0 -12 3 -18 10l-88 122c-4 5 -1 10 5 10h38c8 0 12 -3 16 -10l77 -122
c4 -6 1 -10 -5 -10z" />
    <glyph glyph-name="eacute" unicode="&#xe9;" horiz-adv-x="502" 
d="M250 558h-25c-6 0 -9 4 -6 10l77 122c4 7 9 10 17 10h38c6 0 9 -5 5 -10l-88 -122c-6 -7 -10 -10 -18 -10zM257 -10c-93 0 -156 44 -183 126c-9 29 -14 62 -14 123c0 60 5 95 14 124c26 80 91 124 177 124s152 -44 178 -124c10 -30 14 -61 14 -127c0 -6 -4 -10 -11 -10
h-311c-4 0 -6 -3 -6 -7c0 -40 3 -62 10 -84c22 -63 70 -93 135 -93c62 0 105 26 133 61c4 5 9 6 14 2l23 -21c5 -4 5 -9 1 -14c-35 -47 -95 -80 -174 -80zM121 272h261c4 0 6 2 6 6c0 29 -3 50 -9 69c-19 59 -65 90 -128 90c-62 0 -108 -31 -127 -90c-6 -19 -9 -40 -9 -69
c0 -4 2 -6 6 -6z" />
    <glyph glyph-name="ecircumflex" unicode="&#xea;" horiz-adv-x="502" 
d="M364 558h-25c-8 0 -11 2 -17 10l-71 85h-2l-70 -85c-7 -8 -10 -10 -17 -10h-25c-6 0 -8 5 -4 10l90 123c5 7 9 9 16 9h23c7 0 10 -2 15 -9l91 -123c4 -5 2 -10 -4 -10zM257 -10c-93 0 -156 44 -183 126c-9 29 -14 62 -14 123c0 60 5 95 14 124c26 80 91 124 177 124
s152 -44 178 -124c10 -30 14 -61 14 -127c0 -6 -4 -10 -11 -10h-311c-4 0 -6 -3 -6 -7c0 -40 3 -62 10 -84c22 -63 70 -93 135 -93c62 0 105 26 133 61c4 5 9 6 14 2l23 -21c5 -4 5 -9 1 -14c-35 -47 -95 -80 -174 -80zM121 272h261c4 0 6 2 6 6c0 29 -3 50 -9 69
c-19 59 -65 90 -128 90c-62 0 -108 -31 -127 -90c-6 -19 -9 -40 -9 -69c0 -4 2 -6 6 -6z" />
    <glyph glyph-name="ecaron" unicode="&#x11b;" horiz-adv-x="502" 
d="M262 558h-23c-7 0 -11 2 -16 9l-90 122c-4 5 -2 10 4 10h25c7 0 10 -2 17 -10l70 -85h2l71 85c6 8 9 10 17 10h25c6 0 8 -5 4 -10l-91 -122c-5 -7 -8 -9 -15 -9zM257 -10c-93 0 -156 44 -183 126c-9 29 -14 62 -14 123c0 60 5 95 14 124c26 80 91 124 177 124
s152 -44 178 -124c10 -30 14 -61 14 -127c0 -6 -4 -10 -11 -10h-311c-4 0 -6 -3 -6 -7c0 -40 3 -62 10 -84c22 -63 70 -93 135 -93c62 0 105 26 133 61c4 5 9 6 14 2l23 -21c5 -4 5 -9 1 -14c-35 -47 -95 -80 -174 -80zM121 272h261c4 0 6 2 6 6c0 29 -3 50 -9 69
c-19 59 -65 90 -128 90c-62 0 -108 -31 -127 -90c-6 -19 -9 -40 -9 -69c0 -4 2 -6 6 -6z" />
    <glyph glyph-name="edieresis" unicode="&#xeb;" horiz-adv-x="502" 
d="M370 604h-40c-6 0 -10 4 -10 10v56c0 6 4 10 10 10h40c6 0 10 -4 10 -10v-56c0 -6 -4 -10 -10 -10zM171 604h-40c-6 0 -10 4 -10 10v56c0 6 4 10 10 10h40c6 0 10 -4 10 -10v-56c0 -6 -4 -10 -10 -10zM257 -10c-93 0 -156 44 -183 126c-9 29 -14 62 -14 123
c0 60 5 95 14 124c26 80 91 124 177 124s152 -44 178 -124c10 -30 14 -61 14 -127c0 -6 -4 -10 -11 -10h-311c-4 0 -6 -3 -6 -7c0 -40 3 -62 10 -84c22 -63 70 -93 135 -93c62 0 105 26 133 61c4 5 9 6 14 2l23 -21c5 -4 5 -9 1 -14c-35 -47 -95 -80 -174 -80zM121 272h261
c4 0 6 2 6 6c0 29 -3 50 -9 69c-19 59 -65 90 -128 90c-62 0 -108 -31 -127 -90c-6 -19 -9 -40 -9 -69c0 -4 2 -6 6 -6z" />
    <glyph glyph-name="emacron" unicode="&#x113;" horiz-adv-x="502" 
d="M257 -10c-93 0 -156 44 -183 126c-9 29 -14 62 -14 123c0 60 5 95 14 124c26 80 91 124 177 124s152 -44 178 -124c10 -30 14 -61 14 -127c0 -6 -4 -10 -11 -10h-311c-4 0 -6 -3 -6 -7c0 -40 3 -62 10 -84c22 -63 70 -93 135 -93c62 0 105 26 133 61c4 5 9 6 14 2l23 -21
c5 -4 5 -9 1 -14c-35 -47 -95 -80 -174 -80zM121 272h261c4 0 6 2 6 6c0 29 -3 50 -9 69c-19 59 -65 90 -128 90c-62 0 -108 -31 -127 -90c-6 -19 -9 -40 -9 -69c0 -4 2 -6 6 -6zM370 618h-240c-6 0 -10 4 -10 10v26c0 6 4 10 10 10h240c6 0 10 -4 10 -10v-26
c0 -6 -4 -10 -10 -10z" />
    <glyph glyph-name="ebreve" unicode="&#x115;" horiz-adv-x="502" 
d="M257 -10c-93 0 -156 44 -183 126c-9 29 -14 62 -14 123c0 60 5 95 14 124c26 80 91 124 177 124s152 -44 178 -124c10 -30 14 -61 14 -127c0 -6 -4 -10 -11 -10h-311c-4 0 -6 -3 -6 -7c0 -40 3 -62 10 -84c22 -63 70 -93 135 -93c62 0 105 26 133 61c4 5 9 6 14 2l23 -21
c5 -4 5 -9 1 -14c-35 -47 -95 -80 -174 -80zM121 272h261c4 0 6 2 6 6c0 29 -3 50 -9 69c-19 59 -65 90 -128 90c-62 0 -108 -31 -127 -90c-6 -19 -9 -40 -9 -69c0 -4 2 -6 6 -6zM250 570c-68 0 -116 43 -124 104c-1 6 3 10 9 10h19c7 0 10 -4 12 -10c11 -39 40 -60 84 -60
c45 0 74 21 86 60c2 6 4 10 11 10h19c6 0 10 -4 9 -10c-9 -61 -56 -104 -125 -104z" />
    <glyph glyph-name="edotaccent" unicode="&#x117;" horiz-adv-x="502" 
d="M257 -10c-93 0 -156 44 -183 126c-9 29 -14 62 -14 123c0 60 5 95 14 124c26 80 91 124 177 124s152 -44 178 -124c10 -30 14 -61 14 -127c0 -6 -4 -10 -11 -10h-311c-4 0 -6 -3 -6 -7c0 -40 3 -62 10 -84c22 -63 70 -93 135 -93c62 0 105 26 133 61c4 5 9 6 14 2l23 -21
c5 -4 5 -9 1 -14c-35 -47 -95 -80 -174 -80zM121 272h261c4 0 6 2 6 6c0 29 -3 50 -9 69c-19 59 -65 90 -128 90c-62 0 -108 -31 -127 -90c-6 -19 -9 -40 -9 -69c0 -4 2 -6 6 -6zM272 604h-44c-6 0 -10 4 -10 10v56c0 6 4 10 10 10h44c6 0 10 -4 10 -10v-56
c0 -6 -4 -10 -10 -10z" />
    <glyph glyph-name="eogonek" unicode="&#x119;" horiz-adv-x="502" 
d="M332 -172c-42 0 -70 25 -70 68c0 31 16 60 50 100c-17 -4 -36 -6 -55 -6c-93 0 -156 44 -183 126c-9 29 -14 62 -14 123c0 60 5 95 14 124c26 80 91 124 177 124s152 -44 178 -124c10 -30 14 -61 14 -127c0 -6 -4 -10 -11 -10h-311c-4 0 -6 -3 -6 -7c0 -40 3 -62 10 -84
c22 -63 70 -93 135 -93c62 0 105 26 133 61c4 5 9 6 14 2l23 -21c5 -4 5 -9 1 -14c-9 -12 -21 -24 -34 -35c-76 -81 -86 -108 -86 -132c0 -18 11 -28 29 -28c9 0 18 3 28 9c5 3 10 2 13 -3l11 -21c2 -5 1 -9 -4 -13c-13 -10 -35 -19 -56 -19zM121 272h261c4 0 6 2 6 6
c0 29 -3 50 -9 69c-19 59 -65 90 -128 90c-62 0 -108 -31 -127 -90c-6 -19 -9 -40 -9 -69c0 -4 2 -6 6 -6z" />
    <glyph glyph-name="gcircumflex" unicode="&#x11d;" horiz-adv-x="522" 
d="M364 558h-25c-8 0 -11 2 -17 10l-71 85h-2l-70 -85c-7 -8 -10 -10 -17 -10h-25c-6 0 -8 5 -4 10l90 123c5 7 9 9 16 9h23c7 0 10 -2 15 -9l91 -123c4 -5 2 -10 -4 -10zM239 -190c-69 0 -132 30 -158 69c-3 5 -3 10 2 14l25 22c5 4 10 3 14 -2c29 -33 69 -51 118 -51
c85 0 136 42 136 145v69h-1c-22 -47 -64 -78 -141 -78c-80 0 -135 41 -159 114c-11 34 -16 73 -16 130s5 96 16 130c24 73 79 115 159 115c77 0 119 -31 141 -78h1v58c0 6 4 10 10 10h34c6 0 10 -4 10 -10v-458c0 -133 -72 -199 -191 -199zM245 49c55 0 99 25 119 84
c9 27 12 59 12 109s-3 82 -12 109c-20 60 -64 84 -119 84c-59 0 -99 -29 -117 -83c-10 -28 -14 -62 -14 -110c0 -47 4 -82 14 -109c18 -55 58 -84 117 -84z" />
    <glyph glyph-name="gbreve" unicode="&#x11f;" horiz-adv-x="522" 
d="M239 -190c-69 0 -132 30 -158 69c-3 5 -3 10 2 14l25 22c5 4 10 3 14 -2c29 -33 69 -51 118 -51c85 0 136 42 136 145v69h-1c-22 -47 -64 -78 -141 -78c-80 0 -135 41 -159 114c-11 34 -16 73 -16 130s5 96 16 130c24 73 79 115 159 115c77 0 119 -31 141 -78h1v58
c0 6 4 10 10 10h34c6 0 10 -4 10 -10v-458c0 -133 -72 -199 -191 -199zM245 49c55 0 99 25 119 84c9 27 12 59 12 109s-3 82 -12 109c-20 60 -64 84 -119 84c-59 0 -99 -29 -117 -83c-10 -28 -14 -62 -14 -110c0 -47 4 -82 14 -109c18 -55 58 -84 117 -84zM253 570
c-68 0 -116 43 -124 104c-1 6 3 10 9 10h19c7 0 10 -4 12 -10c11 -39 40 -60 84 -60c45 0 74 21 86 60c2 6 4 10 11 10h19c6 0 10 -4 9 -10c-9 -61 -56 -104 -125 -104z" />
    <glyph glyph-name="gdotaccent" unicode="&#x121;" horiz-adv-x="522" 
d="M239 -190c-69 0 -132 30 -158 69c-3 5 -3 10 2 14l25 22c5 4 10 3 14 -2c29 -33 69 -51 118 -51c85 0 136 42 136 145v69h-1c-22 -47 -64 -78 -141 -78c-80 0 -135 41 -159 114c-11 34 -16 73 -16 130s5 96 16 130c24 73 79 115 159 115c77 0 119 -31 141 -78h1v58
c0 6 4 10 10 10h34c6 0 10 -4 10 -10v-458c0 -133 -72 -199 -191 -199zM245 49c55 0 99 25 119 84c9 27 12 59 12 109s-3 82 -12 109c-20 60 -64 84 -119 84c-59 0 -99 -29 -117 -83c-10 -28 -14 -62 -14 -110c0 -47 4 -82 14 -109c18 -55 58 -84 117 -84zM275 604h-44
c-6 0 -10 4 -10 10v56c0 6 4 10 10 10h44c6 0 10 -4 10 -10v-56c0 -6 -4 -10 -10 -10z" />
    <glyph glyph-name="gcommaaccent" unicode="&#x123;" horiz-adv-x="522" 
d="M270 572h-37c-6 0 -10 4 -10 10v46c0 10 1 14 5 22l32 57c3 6 6 8 11 8c6 0 9 -3 9 -9v-124c0 -6 -4 -10 -10 -10zM239 -190c-69 0 -132 30 -158 69c-3 5 -3 10 2 14l25 22c5 4 10 3 14 -2c29 -33 69 -51 118 -51c85 0 136 42 136 145v69h-1c-22 -47 -64 -78 -141 -78
c-80 0 -135 41 -159 114c-11 34 -16 73 -16 130s5 96 16 130c24 73 79 115 159 115c77 0 119 -31 141 -78h1v58c0 6 4 10 10 10h34c6 0 10 -4 10 -10v-458c0 -133 -72 -199 -191 -199zM245 49c55 0 99 25 119 84c9 27 12 59 12 109s-3 82 -12 109c-20 60 -64 84 -119 84
c-59 0 -99 -29 -117 -83c-10 -28 -14 -62 -14 -110c0 -47 4 -82 14 -109c18 -55 58 -84 117 -84z" />
    <glyph glyph-name="hcircumflex" unicode="&#x125;" horiz-adv-x="541" 
d="M445 0h-34c-6 0 -10 4 -10 10v282c0 95 -42 143 -125 143c-73 0 -130 -50 -130 -133v-292c0 -6 -4 -10 -10 -10h-34c-6 0 -10 4 -10 10v660c0 6 4 10 10 10h34c6 0 10 -4 10 -10v-260h1c24 47 74 77 141 77c106 0 167 -66 167 -182v-295c0 -6 -4 -10 -10 -10zM389 754
h-25c-8 0 -11 2 -17 10l-71 85h-2l-70 -85c-7 -8 -10 -10 -17 -10h-25c-6 0 -8 5 -4 10l90 123c5 7 9 9 16 9h23c7 0 10 -2 15 -9l91 -123c4 -5 2 -10 -4 -10z" />
    <glyph glyph-name="hbar" unicode="&#x127;" horiz-adv-x="541" 
d="M445 0h-34c-6 0 -10 4 -10 10v282c0 95 -42 143 -125 143c-73 0 -130 -50 -130 -133v-292c0 -6 -4 -10 -10 -10h-34c-6 0 -10 4 -10 10v547c0 4 -2 6 -6 6h-30c-6 0 -10 4 -10 10v26c0 6 4 10 10 10h30c4 0 6 2 6 6v55c0 6 4 10 10 10h34c6 0 10 -4 10 -10v-55
c0 -4 2 -6 6 -6h131c6 0 10 -4 10 -10v-26c0 -6 -4 -10 -10 -10h-131c-4 0 -6 -2 -6 -6v-147h1c24 47 74 77 141 77c106 0 167 -66 167 -182v-295c0 -6 -4 -10 -10 -10z" />
    <glyph glyph-name="dotlessi" unicode="&#x131;" horiz-adv-x="238" 
d="M136 0h-34c-6 0 -10 4 -10 10v457c0 6 4 10 10 10h34c6 0 10 -4 10 -10v-457c0 -6 -4 -10 -10 -10z" />
    <glyph glyph-name="igrave" unicode="&#xec;" horiz-adv-x="238" 
d="M136 0h-34c-6 0 -10 4 -10 10v457c0 6 4 10 10 10h34c6 0 10 -4 10 -10v-457c0 -6 -4 -10 -10 -10zM133 558h-25c-8 0 -12 3 -18 10l-88 122c-4 5 -1 10 5 10h38c8 0 12 -3 16 -10l77 -122c4 -6 1 -10 -5 -10z" />
    <glyph glyph-name="iacute" unicode="&#xed;" horiz-adv-x="238" 
d="M132 558h-25c-6 0 -9 4 -6 10l77 122c4 7 9 10 17 10h38c6 0 9 -5 5 -10l-88 -122c-6 -7 -10 -10 -18 -10zM136 0h-34c-6 0 -10 4 -10 10v457c0 6 4 10 10 10h34c6 0 10 -4 10 -10v-457c0 -6 -4 -10 -10 -10z" />
    <glyph glyph-name="ibreve" unicode="&#x12d;" horiz-adv-x="238" 
d="M136 0h-34c-6 0 -10 4 -10 10v457c0 6 4 10 10 10h34c6 0 10 -4 10 -10v-457c0 -6 -4 -10 -10 -10zM119 570c-68 0 -116 43 -124 104c-1 6 3 10 9 10h19c7 0 10 -4 12 -10c11 -39 40 -60 84 -60c45 0 74 21 86 60c2 6 4 10 11 10h19c6 0 10 -4 9 -10
c-9 -61 -56 -104 -125 -104z" />
    <glyph glyph-name="icircumflex" unicode="&#xee;" horiz-adv-x="238" 
d="M233 558h-25c-8 0 -11 2 -17 10l-71 85h-2l-70 -85c-7 -8 -10 -10 -17 -10h-25c-6 0 -8 5 -4 10l90 123c5 7 9 9 16 9h23c7 0 10 -2 15 -9l91 -123c4 -5 2 -10 -4 -10zM136 0h-34c-6 0 -10 4 -10 10v457c0 6 4 10 10 10h34c6 0 10 -4 10 -10v-457c0 -6 -4 -10 -10 -10z
" />
    <glyph glyph-name="itilde" unicode="&#x129;" horiz-adv-x="238" 
d="M136 0h-34c-6 0 -10 4 -10 10v457c0 6 4 10 10 10h34c6 0 10 -4 10 -10v-457c0 -6 -4 -10 -10 -10zM173 596c-24 0 -42 10 -60 21c-16 10 -31 18 -49 18c-23 0 -39 -14 -58 -33c-5 -4 -9 -2 -9 3v30c0 6 2 9 8 15c16 18 36 30 61 30c24 0 43 -10 60 -20
c16 -11 31 -18 49 -18c23 0 40 13 59 33c4 4 8 2 8 -3v-30c0 -6 -1 -9 -7 -16c-17 -17 -37 -30 -62 -30z" />
    <glyph glyph-name="idieresis" unicode="&#xef;" horiz-adv-x="238" 
d="M239 604h-40c-6 0 -10 4 -10 10v56c0 6 4 10 10 10h40c6 0 10 -4 10 -10v-56c0 -6 -4 -10 -10 -10zM40 604h-40c-6 0 -10 4 -10 10v56c0 6 4 10 10 10h40c6 0 10 -4 10 -10v-56c0 -6 -4 -10 -10 -10zM136 0h-34c-6 0 -10 4 -10 10v457c0 6 4 10 10 10h34
c6 0 10 -4 10 -10v-457c0 -6 -4 -10 -10 -10z" />
    <glyph glyph-name="imacron" unicode="&#x12b;" horiz-adv-x="238" 
d="M136 0h-34c-6 0 -10 4 -10 10v457c0 6 4 10 10 10h34c6 0 10 -4 10 -10v-457c0 -6 -4 -10 -10 -10zM240 618h-240c-6 0 -10 4 -10 10v26c0 6 4 10 10 10h240c6 0 10 -4 10 -10v-26c0 -6 -4 -10 -10 -10z" />
    <glyph glyph-name="iogonek" unicode="&#x12f;" horiz-adv-x="238" 
d="M141 604h-44c-6 0 -10 4 -10 10v56c0 6 4 10 10 10h44c6 0 10 -4 10 -10v-56c0 -6 -4 -10 -10 -10zM99 -172c-42 0 -70 25 -70 68c0 32 14 58 63 108v463c0 6 4 10 10 10h34c6 0 10 -4 10 -10v-457c0 -4 -1 -6 -4 -9c-56 -55 -64 -77 -64 -98c0 -18 11 -28 29 -28
c9 0 18 3 28 9c5 3 10 2 13 -3l11 -21c2 -5 1 -9 -4 -13c-13 -10 -35 -19 -56 -19z" />
    <glyph glyph-name="dotlessj" unicode="&#x237;" horiz-adv-x="238" 
d="M23 -180h-11c-6 0 -10 4 -10 10v32c0 6 4 10 10 10h9c54 0 71 14 71 73v522c0 6 4 10 10 10h34c6 0 10 -4 10 -10v-521c0 -93 -35 -126 -123 -126z" />
    <glyph glyph-name="jcircumflex" unicode="&#x135;" horiz-adv-x="238" 
d="M23 -180h-11c-6 0 -10 4 -10 10v32c0 6 4 10 10 10h9c54 0 71 14 71 73v522c0 6 4 10 10 10h34c6 0 10 -4 10 -10v-521c0 -93 -35 -126 -123 -126zM233 558h-25c-8 0 -11 2 -17 10l-71 85h-2l-70 -85c-7 -8 -10 -10 -17 -10h-25c-6 0 -8 5 -4 10l90 123c5 7 9 9 16 9h23
c7 0 10 -2 15 -9l91 -123c4 -5 2 -10 -4 -10z" />
    <glyph glyph-name="kcommaaccent" unicode="&#x137;" horiz-adv-x="500" 
d="M232 -195c-6 0 -9 3 -9 9v120c0 6 4 10 10 10h37c6 0 10 -4 10 -10v-42c0 -10 -1 -14 -5 -22l-32 -57c-3 -6 -6 -8 -11 -8zM456 0h-41c-7 0 -10 2 -15 10l-152 247l-102 -120v-127c0 -6 -4 -10 -10 -10h-34c-6 0 -10 4 -10 10v660c0 6 4 10 10 10h34c6 0 10 -4 10 -10
v-458l216 255c6 7 9 10 17 10h41c6 0 9 -6 5 -10l-141 -167l178 -290c3 -5 0 -10 -6 -10z" />
    <glyph glyph-name="kgreenlandic" unicode="&#x138;" horiz-adv-x="500" 
d="M456 0h-41c-7 0 -10 2 -15 10l-152 247l-102 -120v-127c0 -6 -4 -10 -10 -10h-34c-6 0 -10 4 -10 10v457c0 6 4 10 10 10h34c6 0 10 -4 10 -10v-255l216 255c6 7 9 10 17 10h41c6 0 9 -6 5 -10l-141 -167l178 -290c3 -5 0 -10 -6 -10z" />
    <glyph glyph-name="lacute" unicode="&#x13a;" horiz-adv-x="262" 
d="M133 764h-26c-6 0 -9 4 -4 10l82 104c5 7 10 10 18 10h40c6 0 8 -5 4 -10l-96 -105c-7 -8 -10 -9 -18 -9zM213 -3h-23c-72 0 -99 33 -99 112v561c0 6 4 10 10 10h34c6 0 10 -4 10 -10v-559c0 -47 15 -62 51 -62h17c6 0 10 -4 10 -10v-32c0 -6 -4 -10 -10 -10z" />
    <glyph glyph-name="lcaron" unicode="&#x13e;" horiz-adv-x="262" 
d="M211 535c-6 0 -9 4 -9 10v125c0 6 4 10 10 10h37c6 0 10 -4 10 -10v-48c0 -9 -1 -13 -5 -21l-32 -57c-3 -6 -6 -9 -11 -9zM213 -3h-23c-72 0 -99 33 -99 112v561c0 6 4 10 10 10h34c6 0 10 -4 10 -10v-559c0 -47 15 -62 51 -62h17c6 0 10 -4 10 -10v-32
c0 -6 -4 -10 -10 -10z" />
    <glyph glyph-name="lcommaaccent" unicode="&#x13c;" horiz-adv-x="262" 
d="M139 -195c-6 0 -9 3 -9 9v120c0 6 4 10 10 10h37c6 0 10 -4 10 -10v-42c0 -10 -1 -14 -5 -22l-32 -57c-3 -6 -6 -8 -11 -8zM213 -3h-23c-72 0 -99 33 -99 112v561c0 6 4 10 10 10h34c6 0 10 -4 10 -10v-559c0 -47 15 -62 51 -62h17c6 0 10 -4 10 -10v-32
c0 -6 -4 -10 -10 -10z" />
    <glyph glyph-name="lslash" unicode="&#x142;" horiz-adv-x="262" 
d="M213 383l-68 -36v-236c0 -47 15 -62 51 -62h17c6 0 10 -4 10 -10v-32c0 -6 -4 -10 -10 -10h-23c-72 0 -99 33 -99 112v213l-39 -20c-6 -3 -10 0 -10 6v33c0 6 2 10 10 14l39 20v295c0 6 4 10 10 10h34c6 0 10 -4 10 -10v-270l68 36c6 3 10 0 10 -6v-33
c0 -6 -2 -10 -10 -14z" />
    <glyph glyph-name="ldot" unicode="&#x140;" horiz-adv-x="295" 
d="M213 -3h-23c-72 0 -99 33 -99 112v561c0 6 4 10 10 10h34c6 0 10 -4 10 -10v-559c0 -47 15 -62 51 -62h17c6 0 10 -4 10 -10v-32c0 -6 -4 -10 -10 -10zM290 286h-49c-6 0 -10 4 -10 10v67c0 6 4 10 10 10h49c6 0 10 -4 10 -10v-67c0 -6 -4 -10 -10 -10z" />
    <glyph glyph-name="nacute" unicode="&#x144;" horiz-adv-x="541" 
d="M251 558h-25c-6 0 -9 4 -6 10l77 122c4 7 9 10 17 10h38c6 0 9 -5 5 -10l-88 -122c-6 -7 -10 -10 -18 -10zM445 0h-34c-6 0 -10 4 -10 10v282c0 95 -42 143 -125 143c-73 0 -130 -50 -130 -133v-292c0 -6 -4 -10 -10 -10h-34c-6 0 -10 4 -10 10v457c0 6 4 10 10 10h34
c6 0 10 -4 10 -10v-57h1c24 47 74 77 141 77c106 0 167 -66 167 -182v-295c0 -6 -4 -10 -10 -10z" />
    <glyph glyph-name="ncaron" unicode="&#x148;" horiz-adv-x="541" 
d="M282 558h-23c-7 0 -11 2 -16 9l-90 122c-4 5 -2 10 4 10h25c7 0 10 -2 17 -10l70 -85h2l71 85c6 8 9 10 17 10h25c6 0 8 -5 4 -10l-91 -122c-5 -7 -8 -9 -15 -9zM445 0h-34c-6 0 -10 4 -10 10v282c0 95 -42 143 -125 143c-73 0 -130 -50 -130 -133v-292
c0 -6 -4 -10 -10 -10h-34c-6 0 -10 4 -10 10v457c0 6 4 10 10 10h34c6 0 10 -4 10 -10v-57h1c24 47 74 77 141 77c106 0 167 -66 167 -182v-295c0 -6 -4 -10 -10 -10z" />
    <glyph glyph-name="ntilde" unicode="&#xf1;" horiz-adv-x="541" 
d="M445 0h-34c-6 0 -10 4 -10 10v282c0 95 -42 143 -125 143c-73 0 -130 -50 -130 -133v-292c0 -6 -4 -10 -10 -10h-34c-6 0 -10 4 -10 10v457c0 6 4 10 10 10h34c6 0 10 -4 10 -10v-57h1c24 47 74 77 141 77c106 0 167 -66 167 -182v-295c0 -6 -4 -10 -10 -10zM323 596
c-24 0 -42 10 -60 21c-16 10 -31 18 -49 18c-23 0 -39 -14 -58 -33c-5 -4 -9 -2 -9 3v30c0 6 2 9 8 15c16 18 36 30 61 30c24 0 43 -10 60 -20c16 -11 31 -18 49 -18c23 0 40 13 59 33c4 4 8 2 8 -3v-30c0 -6 -1 -9 -7 -16c-17 -17 -37 -30 -62 -30z" />
    <glyph glyph-name="ncommaaccent" unicode="&#x146;" horiz-adv-x="541" 
d="M251 -195c-6 0 -9 3 -9 9v120c0 6 4 10 10 10h37c6 0 10 -4 10 -10v-42c0 -10 -1 -14 -5 -22l-32 -57c-3 -6 -6 -8 -11 -8zM445 0h-34c-6 0 -10 4 -10 10v282c0 95 -42 143 -125 143c-73 0 -130 -50 -130 -133v-292c0 -6 -4 -10 -10 -10h-34c-6 0 -10 4 -10 10v457
c0 6 4 10 10 10h34c6 0 10 -4 10 -10v-57h1c24 47 74 77 141 77c106 0 167 -66 167 -182v-295c0 -6 -4 -10 -10 -10z" />
    <glyph glyph-name="ograve" unicode="&#xf2;" horiz-adv-x="509" 
d="M254 -10c-87 0 -152 45 -178 124c-10 32 -16 67 -16 125c0 57 6 92 16 124c26 79 91 124 178 124c88 0 153 -45 179 -124c10 -32 16 -67 16 -124c0 -58 -6 -93 -16 -125c-26 -79 -91 -124 -179 -124zM254 42c62 0 108 32 127 89c9 27 13 56 13 108c0 51 -4 80 -13 107
c-19 57 -65 89 -127 89c-61 0 -107 -32 -126 -89c-9 -27 -13 -56 -13 -107c0 -52 4 -81 13 -108c19 -57 65 -89 126 -89zM280 558h-25c-8 0 -12 3 -18 10l-88 122c-4 5 -1 10 5 10h38c8 0 12 -3 16 -10l77 -122c4 -6 1 -10 -5 -10z" />
    <glyph glyph-name="oacute" unicode="&#xf3;" horiz-adv-x="509" 
d="M253 558h-25c-6 0 -9 4 -6 10l77 122c4 7 9 10 17 10h38c6 0 9 -5 5 -10l-88 -122c-6 -7 -10 -10 -18 -10zM254 -10c-87 0 -152 45 -178 124c-10 32 -16 67 -16 125c0 57 6 92 16 124c26 79 91 124 178 124c88 0 153 -45 179 -124c10 -32 16 -67 16 -124
c0 -58 -6 -93 -16 -125c-26 -79 -91 -124 -179 -124zM254 42c62 0 108 32 127 89c9 27 13 56 13 108c0 51 -4 80 -13 107c-19 57 -65 89 -127 89c-61 0 -107 -32 -126 -89c-9 -27 -13 -56 -13 -107c0 -52 4 -81 13 -108c19 -57 65 -89 126 -89z" />
    <glyph glyph-name="ocircumflex" unicode="&#xf4;" horiz-adv-x="509" 
d="M367 558h-25c-8 0 -11 2 -17 10l-71 85h-2l-70 -85c-7 -8 -10 -10 -17 -10h-25c-6 0 -8 5 -4 10l90 123c5 7 9 9 16 9h23c7 0 10 -2 15 -9l91 -123c4 -5 2 -10 -4 -10zM254 -10c-87 0 -152 45 -178 124c-10 32 -16 67 -16 125c0 57 6 92 16 124c26 79 91 124 178 124
c88 0 153 -45 179 -124c10 -32 16 -67 16 -124c0 -58 -6 -93 -16 -125c-26 -79 -91 -124 -179 -124zM254 42c62 0 108 32 127 89c9 27 13 56 13 108c0 51 -4 80 -13 107c-19 57 -65 89 -127 89c-61 0 -107 -32 -126 -89c-9 -27 -13 -56 -13 -107c0 -52 4 -81 13 -108
c19 -57 65 -89 126 -89z" />
    <glyph glyph-name="otilde" unicode="&#xf5;" horiz-adv-x="509" 
d="M254 -10c-87 0 -152 45 -178 124c-10 32 -16 67 -16 125c0 57 6 92 16 124c26 79 91 124 178 124c88 0 153 -45 179 -124c10 -32 16 -67 16 -124c0 -58 -6 -93 -16 -125c-26 -79 -91 -124 -179 -124zM254 42c62 0 108 32 127 89c9 27 13 56 13 108c0 51 -4 80 -13 107
c-19 57 -65 89 -127 89c-61 0 -107 -32 -126 -89c-9 -27 -13 -56 -13 -107c0 -52 4 -81 13 -108c19 -57 65 -89 126 -89zM307 596c-24 0 -42 10 -60 21c-16 10 -31 18 -49 18c-23 0 -39 -14 -58 -33c-5 -4 -9 -2 -9 3v30c0 6 2 9 8 15c16 18 36 30 61 30c24 0 43 -10 60 -20
c16 -11 31 -18 49 -18c23 0 40 13 59 33c4 4 8 2 8 -3v-30c0 -6 -1 -9 -7 -16c-17 -17 -37 -30 -62 -30z" />
    <glyph glyph-name="odieresis" unicode="&#xf6;" horiz-adv-x="509" 
d="M373 604h-40c-6 0 -10 4 -10 10v56c0 6 4 10 10 10h40c6 0 10 -4 10 -10v-56c0 -6 -4 -10 -10 -10zM174 604h-40c-6 0 -10 4 -10 10v56c0 6 4 10 10 10h40c6 0 10 -4 10 -10v-56c0 -6 -4 -10 -10 -10zM254 -10c-87 0 -152 45 -178 124c-10 32 -16 67 -16 125
c0 57 6 92 16 124c26 79 91 124 178 124c88 0 153 -45 179 -124c10 -32 16 -67 16 -124c0 -58 -6 -93 -16 -125c-26 -79 -91 -124 -179 -124zM254 42c62 0 108 32 127 89c9 27 13 56 13 108c0 51 -4 80 -13 107c-19 57 -65 89 -127 89c-61 0 -107 -32 -126 -89
c-9 -27 -13 -56 -13 -107c0 -52 4 -81 13 -108c19 -57 65 -89 126 -89z" />
    <glyph glyph-name="omacron" unicode="&#x14d;" horiz-adv-x="509" 
d="M373 618h-240c-6 0 -10 4 -10 10v26c0 6 4 10 10 10h240c6 0 10 -4 10 -10v-26c0 -6 -4 -10 -10 -10zM254 -10c-87 0 -152 45 -178 124c-10 32 -16 67 -16 125c0 57 6 92 16 124c26 79 91 124 178 124c88 0 153 -45 179 -124c10 -32 16 -67 16 -124
c0 -58 -6 -93 -16 -125c-26 -79 -91 -124 -179 -124zM254 42c62 0 108 32 127 89c9 27 13 56 13 108c0 51 -4 80 -13 107c-19 57 -65 89 -127 89c-61 0 -107 -32 -126 -89c-9 -27 -13 -56 -13 -107c0 -52 4 -81 13 -108c19 -57 65 -89 126 -89z" />
    <glyph glyph-name="obreve" unicode="&#x14f;" horiz-adv-x="509" 
d="M254 -10c-87 0 -152 45 -178 124c-10 32 -16 67 -16 125c0 57 6 92 16 124c26 79 91 124 178 124c88 0 153 -45 179 -124c10 -32 16 -67 16 -124c0 -58 -6 -93 -16 -125c-26 -79 -91 -124 -179 -124zM254 42c62 0 108 32 127 89c9 27 13 56 13 108c0 51 -4 80 -13 107
c-19 57 -65 89 -127 89c-61 0 -107 -32 -126 -89c-9 -27 -13 -56 -13 -107c0 -52 4 -81 13 -108c19 -57 65 -89 126 -89zM253 570c-68 0 -116 43 -124 104c-1 6 3 10 9 10h19c7 0 10 -4 12 -10c11 -39 40 -60 84 -60c45 0 74 21 86 60c2 6 4 10 11 10h19c6 0 10 -4 9 -10
c-9 -61 -56 -104 -125 -104z" />
    <glyph glyph-name="ohungarumlaut" unicode="&#x151;" horiz-adv-x="509" 
d="M328 558h-24c-6 0 -8 4 -5 10l67 122c4 7 8 10 16 10h32c6 0 8 -5 5 -10l-76 -123c-4 -6 -7 -9 -15 -9zM204 558h-24c-6 0 -9 4 -6 10l67 122c4 7 8 10 16 10h33c6 0 8 -5 5 -10l-76 -123c-4 -6 -7 -9 -15 -9zM254 -10c-87 0 -152 45 -178 124c-10 32 -16 67 -16 125
c0 57 6 92 16 124c26 79 91 124 178 124c88 0 153 -45 179 -124c10 -32 16 -67 16 -124c0 -58 -6 -93 -16 -125c-26 -79 -91 -124 -179 -124zM254 42c62 0 108 32 127 89c9 27 13 56 13 108c0 51 -4 80 -13 107c-19 57 -65 89 -127 89c-61 0 -107 -32 -126 -89
c-9 -27 -13 -56 -13 -107c0 -52 4 -81 13 -108c19 -57 65 -89 126 -89z" />
    <glyph glyph-name="oslash" unicode="&#xf8;" horiz-adv-x="509" 
d="M254 -10c-48 0 -88 13 -120 39l-33 -49c-5 -7 -9 -10 -17 -10h-17c-6 0 -8 5 -5 10l47 72c-14 18 -25 38 -33 62c-10 32 -16 67 -16 125c0 57 6 92 16 124c26 79 91 124 178 124c48 0 89 -14 121 -39l33 49c5 7 9 10 17 10h17c6 0 8 -5 5 -10l-48 -73
c15 -17 26 -38 34 -61c10 -32 16 -67 16 -124c0 -58 -6 -93 -16 -125c-26 -79 -91 -124 -179 -124zM128 131c4 -12 8 -21 14 -31l203 303c-23 21 -55 32 -91 32c-61 0 -107 -32 -126 -89c-9 -27 -13 -56 -13 -107c0 -52 4 -81 13 -108zM254 42c62 0 108 32 127 89
c9 27 13 56 13 108c0 51 -4 80 -13 107c-4 11 -8 21 -14 31l-203 -303c23 -21 54 -32 90 -32z" />
    <glyph glyph-name="oslashacute" unicode="&#x1ff;" horiz-adv-x="509" 
d="M254 -10c-48 0 -88 13 -120 39l-33 -49c-5 -7 -9 -10 -17 -10h-17c-6 0 -8 5 -5 10l47 72c-14 18 -25 38 -33 62c-10 32 -16 67 -16 125c0 57 6 92 16 124c26 79 91 124 178 124c48 0 89 -14 121 -39l33 49c5 7 9 10 17 10h17c6 0 8 -5 5 -10l-48 -73
c15 -17 26 -38 34 -61c10 -32 16 -67 16 -124c0 -58 -6 -93 -16 -125c-26 -79 -91 -124 -179 -124zM128 131c4 -12 8 -21 14 -31l203 303c-23 21 -55 32 -91 32c-61 0 -107 -32 -126 -89c-9 -27 -13 -56 -13 -107c0 -52 4 -81 13 -108zM254 42c62 0 108 32 127 89
c9 27 13 56 13 108c0 51 -4 80 -13 107c-4 11 -8 21 -14 31l-203 -303c23 -21 54 -32 90 -32zM252 558h-25c-6 0 -9 4 -6 10l77 122c4 7 9 10 17 10h38c6 0 9 -5 5 -10l-88 -122c-6 -7 -10 -10 -18 -10z" />
    <glyph glyph-name="oe" unicode="&#x153;" horiz-adv-x="836" 
d="M590 -10c-80 0 -138 33 -168 100h-2c-29 -66 -88 -100 -166 -100c-88 0 -153 45 -178 124c-11 32 -16 67 -16 124c0 58 5 93 16 125c25 78 90 124 178 124c77 0 137 -35 166 -100h1c30 66 89 100 164 100c86 0 150 -44 177 -124c9 -30 14 -61 14 -127
c0 -6 -4 -10 -11 -10h-311c-4 0 -6 -3 -6 -7c1 -40 4 -62 11 -84c21 -64 69 -93 134 -93c63 0 107 26 134 61c5 5 10 6 15 2l21 -21c5 -4 5 -9 1 -14c-35 -47 -95 -80 -174 -80zM715 272c4 0 6 2 6 6c0 29 -3 50 -9 69c-20 59 -65 90 -127 90s-108 -31 -127 -90
c-6 -19 -10 -40 -10 -69c0 -4 2 -6 6 -6h261zM254 42c62 0 108 32 127 89c9 27 13 56 13 108c0 51 -4 80 -13 107c-19 57 -65 89 -127 89c-61 0 -107 -32 -126 -89c-9 -27 -13 -56 -13 -107c0 -52 4 -81 13 -108c19 -57 65 -89 126 -89z" />
    <glyph glyph-name="racute" unicode="&#x155;" horiz-adv-x="396" 
d="M202 558h-25c-6 0 -9 4 -6 10l77 122c4 7 9 10 17 10h38c6 0 9 -5 5 -10l-88 -122c-6 -7 -10 -10 -18 -10zM136 0h-34c-6 0 -10 4 -10 10v457c0 6 4 10 10 10h34c6 0 10 -4 10 -10v-61h1c18 47 61 81 128 81c38 0 73 -13 96 -33c5 -3 6 -8 2 -13l-20 -28
c-4 -5 -9 -5 -15 -2c-22 14 -46 24 -76 24c-84 0 -116 -73 -116 -161v-264c0 -6 -4 -10 -10 -10z" />
    <glyph glyph-name="rcaron" unicode="&#x159;" horiz-adv-x="396" 
d="M235 558h-23c-7 0 -11 2 -16 9l-90 122c-4 5 -2 10 4 10h25c7 0 10 -2 17 -10l70 -85h2l71 85c6 8 9 10 17 10h25c6 0 8 -5 4 -10l-91 -122c-5 -7 -8 -9 -15 -9zM136 0h-34c-6 0 -10 4 -10 10v457c0 6 4 10 10 10h34c6 0 10 -4 10 -10v-61h1c18 47 61 81 128 81
c38 0 73 -13 96 -33c5 -3 6 -8 2 -13l-20 -28c-4 -5 -9 -5 -15 -2c-22 14 -46 24 -76 24c-84 0 -116 -73 -116 -161v-264c0 -6 -4 -10 -10 -10z" />
    <glyph glyph-name="rcommaaccent" unicode="&#x157;" horiz-adv-x="396" 
d="M100 -195c-6 0 -9 3 -9 9v120c0 6 4 10 10 10h37c6 0 10 -4 10 -10v-42c0 -10 -1 -14 -5 -22l-32 -57c-3 -6 -6 -8 -11 -8zM136 0h-34c-6 0 -10 4 -10 10v457c0 6 4 10 10 10h34c6 0 10 -4 10 -10v-61h1c18 47 61 81 128 81c38 0 73 -13 96 -33c5 -3 6 -8 2 -13l-20 -28
c-4 -5 -9 -5 -15 -2c-22 14 -46 24 -76 24c-84 0 -116 -73 -116 -161v-264c0 -6 -4 -10 -10 -10z" />
    <glyph glyph-name="sacute" unicode="&#x15b;" horiz-adv-x="481" 
d="M237 558h-25c-6 0 -9 4 -6 10l77 122c4 7 9 10 17 10h38c6 0 9 -5 5 -10l-88 -122c-6 -7 -10 -10 -18 -10zM241 -10c-86 0 -149 36 -186 67c-4 4 -4 10 0 14l22 25c4 4 10 3 14 0c37 -30 90 -56 155 -56c83 0 124 37 124 92c0 48 -21 74 -109 84l-48 5
c-89 9 -139 52 -139 127c0 87 63 139 168 139c65 0 121 -21 159 -46c5 -4 5 -10 2 -14l-18 -24c-3 -5 -9 -6 -14 -3c-31 18 -82 37 -132 37c-73 0 -111 -32 -111 -85c0 -47 29 -72 110 -80l48 -5c93 -9 138 -54 138 -128c0 -91 -64 -149 -183 -149z" />
    <glyph glyph-name="scircumflex" unicode="&#x15d;" horiz-adv-x="481" 
d="M355 558h-25c-8 0 -11 2 -17 10l-71 85h-2l-70 -85c-7 -8 -10 -10 -17 -10h-25c-6 0 -8 5 -4 10l90 123c5 7 9 9 16 9h23c7 0 10 -2 15 -9l91 -123c4 -5 2 -10 -4 -10zM241 -10c-86 0 -149 36 -186 67c-4 4 -4 10 0 14l22 25c4 4 10 3 14 0c37 -30 90 -56 155 -56
c83 0 124 37 124 92c0 48 -21 74 -109 84l-48 5c-89 9 -139 52 -139 127c0 87 63 139 168 139c65 0 121 -21 159 -46c5 -4 5 -10 2 -14l-18 -24c-3 -5 -9 -6 -14 -3c-31 18 -82 37 -132 37c-73 0 -111 -32 -111 -85c0 -47 29 -72 110 -80l48 -5c93 -9 138 -54 138 -128
c0 -91 -64 -149 -183 -149z" />
    <glyph glyph-name="scaron" unicode="&#x161;" horiz-adv-x="481" 
d="M253 558h-23c-7 0 -11 2 -16 9l-90 122c-4 5 -2 10 4 10h25c7 0 10 -2 17 -10l70 -85h2l71 85c6 8 9 10 17 10h25c6 0 8 -5 4 -10l-91 -122c-5 -7 -8 -9 -15 -9zM241 -10c-86 0 -149 36 -186 67c-4 4 -4 10 0 14l22 25c4 4 10 3 14 0c37 -30 90 -56 155 -56
c83 0 124 37 124 92c0 48 -21 74 -109 84l-48 5c-89 9 -139 52 -139 127c0 87 63 139 168 139c65 0 121 -21 159 -46c5 -4 5 -10 2 -14l-18 -24c-3 -5 -9 -6 -14 -3c-31 18 -82 37 -132 37c-73 0 -111 -32 -111 -85c0 -47 29 -72 110 -80l48 -5c93 -9 138 -54 138 -128
c0 -91 -64 -149 -183 -149z" />
    <glyph glyph-name="scedilla" unicode="&#x15f;" horiz-adv-x="481" 
d="M212 -148h-31c-6 0 -9 4 -7 10l50 128c-75 4 -134 37 -169 67c-4 4 -4 10 0 14l22 25c4 4 10 3 14 0c37 -30 90 -56 155 -56c83 0 124 37 124 92c0 48 -21 74 -109 84l-48 5c-89 9 -139 52 -139 127c0 87 63 139 168 139c65 0 121 -21 159 -46c5 -4 5 -10 2 -14l-18 -24
c-3 -5 -9 -6 -14 -3c-31 18 -82 37 -132 37c-73 0 -111 -32 -111 -85c0 -47 29 -72 110 -80l48 -5c93 -9 138 -54 138 -128c0 -81 -51 -139 -153 -148l-43 -129c-3 -8 -7 -10 -16 -10z" />
    <glyph glyph-name="scommaaccent" unicode="&#x219;" horiz-adv-x="481" 
d="M220 -195c-6 0 -9 3 -9 9v120c0 6 4 10 10 10h37c6 0 10 -4 10 -10v-42c0 -10 -1 -14 -5 -22l-32 -57c-3 -6 -6 -8 -11 -8zM241 -10c-86 0 -149 36 -186 67c-4 4 -4 10 0 14l22 25c4 4 10 3 14 0c37 -30 90 -56 155 -56c83 0 124 37 124 92c0 48 -21 74 -109 84l-48 5
c-89 9 -139 52 -139 127c0 87 63 139 168 139c65 0 121 -21 159 -46c5 -4 5 -10 2 -14l-18 -24c-3 -5 -9 -6 -14 -3c-31 18 -82 37 -132 37c-73 0 -111 -32 -111 -85c0 -47 29 -72 110 -80l48 -5c93 -9 138 -54 138 -128c0 -91 -64 -149 -183 -149z" />
    <glyph glyph-name="germandbls" unicode="&#xdf;" horiz-adv-x="539" 
d="M297 -5h-15c-6 0 -10 4 -10 10v32c0 6 4 10 10 10h14c61 0 96 17 112 64c6 17 9 38 9 110c0 71 -3 94 -10 113c-15 48 -54 64 -113 65h-12c-6 0 -10 4 -10 10v32c0 6 4 10 10 10h15c76 0 110 28 110 92c0 61 -43 96 -124 96c-99 0 -137 -41 -137 -143v-486
c0 -6 -4 -10 -10 -10h-34c-6 0 -10 4 -10 10v486c0 125 52 194 190 194c119 0 179 -56 179 -147c0 -61 -26 -97 -71 -116v-2c32 -12 57 -35 70 -74c8 -25 11 -50 11 -130c0 -81 -5 -110 -11 -132c-23 -69 -79 -94 -163 -94z" />
    <glyph glyph-name="tcaron" unicode="&#x165;" horiz-adv-x="311" 
d="M255 535c-6 0 -9 4 -9 10v125c0 6 4 10 10 10h37c6 0 10 -4 10 -10v-48c0 -9 -1 -13 -5 -21l-32 -57c-3 -6 -6 -9 -11 -9zM255 -3h-26c-90 0 -124 35 -124 129v297c0 4 -2 6 -6 6h-50c-6 0 -10 4 -10 10v28c0 6 4 10 10 10h50c4 0 6 2 6 6v137c0 6 4 10 10 10h34
c6 0 10 -4 10 -10v-137c0 -4 2 -6 6 -6h90c6 0 10 -4 10 -10v-28c0 -6 -4 -10 -10 -10h-90c-4 0 -6 -2 -6 -6v-294c0 -64 22 -80 77 -80h19c6 0 10 -4 10 -10v-32c0 -6 -4 -10 -10 -10z" />
    <glyph glyph-name="tcommaaccent" unicode="&#x163;" horiz-adv-x="311" 
d="M161 -195c-6 0 -9 3 -9 9v120c0 6 4 10 10 10h37c6 0 10 -4 10 -10v-42c0 -10 -1 -14 -5 -22l-32 -57c-3 -6 -6 -8 -11 -8zM255 -3h-26c-90 0 -124 35 -124 129v297c0 4 -2 6 -6 6h-50c-6 0 -10 4 -10 10v28c0 6 4 10 10 10h50c4 0 6 2 6 6v137c0 6 4 10 10 10h34
c6 0 10 -4 10 -10v-137c0 -4 2 -6 6 -6h90c6 0 10 -4 10 -10v-28c0 -6 -4 -10 -10 -10h-90c-4 0 -6 -2 -6 -6v-294c0 -64 22 -80 77 -80h19c6 0 10 -4 10 -10v-32c0 -6 -4 -10 -10 -10z" />
    <glyph glyph-name="uni021B" unicode="&#x21b;" horiz-adv-x="311" 
d="M161 -195c-6 0 -9 3 -9 9v120c0 6 4 10 10 10h37c6 0 10 -4 10 -10v-42c0 -10 -1 -14 -5 -22l-32 -57c-3 -6 -6 -8 -11 -8zM255 -3h-26c-90 0 -124 35 -124 129v297c0 4 -2 6 -6 6h-50c-6 0 -10 4 -10 10v28c0 6 4 10 10 10h50c4 0 6 2 6 6v137c0 6 4 10 10 10h34
c6 0 10 -4 10 -10v-137c0 -4 2 -6 6 -6h90c6 0 10 -4 10 -10v-28c0 -6 -4 -10 -10 -10h-90c-4 0 -6 -2 -6 -6v-294c0 -64 22 -80 77 -80h19c6 0 10 -4 10 -10v-32c0 -6 -4 -10 -10 -10z" />
    <glyph glyph-name="tbar" unicode="&#x167;" horiz-adv-x="311" 
d="M255 -3h-26c-90 0 -124 35 -124 129v169c0 4 -2 6 -6 6h-40c-6 0 -10 4 -10 10v26c0 6 4 10 10 10h40c4 0 6 2 6 6v70c0 4 -2 6 -6 6h-50c-6 0 -10 4 -10 10v28c0 6 4 10 10 10h50c4 0 6 2 6 6v137c0 6 4 10 10 10h34c6 0 10 -4 10 -10v-137c0 -4 2 -6 6 -6h90
c6 0 10 -4 10 -10v-28c0 -6 -4 -10 -10 -10h-90c-4 0 -6 -2 -6 -6v-70c0 -4 2 -6 6 -6h77c6 0 10 -4 10 -10v-26c0 -6 -4 -10 -10 -10h-77c-4 0 -6 -2 -6 -6v-166c0 -64 22 -80 77 -80h19c6 0 10 -4 10 -10v-32c0 -6 -4 -10 -10 -10z" />
    <glyph glyph-name="thorn" unicode="&#xfe;" horiz-adv-x="531" 
d="M136 -180h-34c-6 0 -10 4 -10 10v840c0 6 4 10 10 10h34c6 0 10 -4 10 -10v-261h1c23 45 66 78 145 78c84 0 137 -38 162 -114c12 -39 17 -81 17 -135c0 -53 -5 -95 -17 -134c-25 -76 -78 -114 -162 -114c-79 0 -122 33 -145 78h-1v-238c0 -6 -4 -10 -10 -10zM281 42
c63 0 104 30 122 84c10 30 13 70 13 112c0 43 -3 83 -13 113c-18 54 -59 84 -122 84c-60 0 -104 -28 -122 -84c-9 -26 -13 -61 -13 -113s4 -86 13 -112c18 -56 62 -84 122 -84z" />
    <glyph glyph-name="ugrave" unicode="&#xf9;" horiz-adv-x="535" 
d="M433 0h-34c-6 0 -10 4 -10 10v56h-1c-24 -47 -74 -76 -139 -76c-106 0 -165 66 -165 181v296c0 6 4 10 10 10h34c6 0 10 -4 10 -10v-282c0 -96 40 -143 123 -143c72 0 128 50 128 133v292c0 6 4 10 10 10h34c6 0 10 -4 10 -10v-457c0 -6 -4 -10 -10 -10zM296 558h-25
c-8 0 -12 3 -18 10l-88 122c-4 5 -1 10 5 10h38c8 0 12 -3 16 -10l77 -122c4 -6 1 -10 -5 -10z" />
    <glyph glyph-name="uacute" unicode="&#xfa;" horiz-adv-x="535" 
d="M264 558h-25c-6 0 -9 4 -6 10l77 122c4 7 9 10 17 10h38c6 0 9 -5 5 -10l-88 -122c-6 -7 -10 -10 -18 -10zM433 0h-34c-6 0 -10 4 -10 10v56h-1c-24 -47 -74 -76 -139 -76c-106 0 -165 66 -165 181v296c0 6 4 10 10 10h34c6 0 10 -4 10 -10v-282c0 -96 40 -143 123 -143
c72 0 128 50 128 133v292c0 6 4 10 10 10h34c6 0 10 -4 10 -10v-457c0 -6 -4 -10 -10 -10z" />
    <glyph glyph-name="ucircumflex" unicode="&#xfb;" horiz-adv-x="535" 
d="M380 558h-25c-8 0 -11 2 -17 10l-71 85h-2l-70 -85c-7 -8 -10 -10 -17 -10h-25c-6 0 -8 5 -4 10l90 123c5 7 9 9 16 9h23c7 0 10 -2 15 -9l91 -123c4 -5 2 -10 -4 -10zM433 0h-34c-6 0 -10 4 -10 10v56h-1c-24 -47 -74 -76 -139 -76c-106 0 -165 66 -165 181v296
c0 6 4 10 10 10h34c6 0 10 -4 10 -10v-282c0 -96 40 -143 123 -143c72 0 128 50 128 133v292c0 6 4 10 10 10h34c6 0 10 -4 10 -10v-457c0 -6 -4 -10 -10 -10z" />
    <glyph glyph-name="utilde" unicode="&#x169;" horiz-adv-x="535" 
d="M433 0h-34c-6 0 -10 4 -10 10v56h-1c-24 -47 -74 -76 -139 -76c-106 0 -165 66 -165 181v296c0 6 4 10 10 10h34c6 0 10 -4 10 -10v-282c0 -96 40 -143 123 -143c72 0 128 50 128 133v292c0 6 4 10 10 10h34c6 0 10 -4 10 -10v-457c0 -6 -4 -10 -10 -10zM320 596
c-24 0 -42 10 -60 21c-16 10 -31 18 -49 18c-23 0 -39 -14 -58 -33c-5 -4 -9 -2 -9 3v30c0 6 2 9 8 15c16 18 36 30 61 30c24 0 43 -10 60 -20c16 -11 31 -18 49 -18c23 0 40 13 59 33c4 4 8 2 8 -3v-30c0 -6 -1 -9 -7 -16c-17 -17 -37 -30 -62 -30z" />
    <glyph glyph-name="udieresis" unicode="&#xfc;" horiz-adv-x="535" 
d="M386 604h-40c-6 0 -10 4 -10 10v56c0 6 4 10 10 10h40c6 0 10 -4 10 -10v-56c0 -6 -4 -10 -10 -10zM187 604h-40c-6 0 -10 4 -10 10v56c0 6 4 10 10 10h40c6 0 10 -4 10 -10v-56c0 -6 -4 -10 -10 -10zM433 0h-34c-6 0 -10 4 -10 10v56h-1c-24 -47 -74 -76 -139 -76
c-106 0 -165 66 -165 181v296c0 6 4 10 10 10h34c6 0 10 -4 10 -10v-282c0 -96 40 -143 123 -143c72 0 128 50 128 133v292c0 6 4 10 10 10h34c6 0 10 -4 10 -10v-457c0 -6 -4 -10 -10 -10z" />
    <glyph glyph-name="umacron" unicode="&#x16b;" horiz-adv-x="535" 
d="M433 0h-34c-6 0 -10 4 -10 10v56h-1c-24 -47 -74 -76 -139 -76c-106 0 -165 66 -165 181v296c0 6 4 10 10 10h34c6 0 10 -4 10 -10v-282c0 -96 40 -143 123 -143c72 0 128 50 128 133v292c0 6 4 10 10 10h34c6 0 10 -4 10 -10v-457c0 -6 -4 -10 -10 -10zM386 618h-240
c-6 0 -10 4 -10 10v26c0 6 4 10 10 10h240c6 0 10 -4 10 -10v-26c0 -6 -4 -10 -10 -10z" />
    <glyph glyph-name="ubreve" unicode="&#x16d;" horiz-adv-x="535" 
d="M433 0h-34c-6 0 -10 4 -10 10v56h-1c-24 -47 -74 -76 -139 -76c-106 0 -165 66 -165 181v296c0 6 4 10 10 10h34c6 0 10 -4 10 -10v-282c0 -96 40 -143 123 -143c72 0 128 50 128 133v292c0 6 4 10 10 10h34c6 0 10 -4 10 -10v-457c0 -6 -4 -10 -10 -10zM266 570
c-68 0 -116 43 -124 104c-1 6 3 10 9 10h19c7 0 10 -4 12 -10c11 -39 40 -60 84 -60c45 0 74 21 86 60c2 6 4 10 11 10h19c6 0 10 -4 9 -10c-9 -61 -56 -104 -125 -104z" />
    <glyph glyph-name="uring" unicode="&#x16f;" horiz-adv-x="535" 
d="M354 629c0 -51 -37 -88 -88 -88s-88 37 -88 88s37 88 88 88s88 -37 88 -88zM319 629c0 32 -21 56 -53 56s-53 -24 -53 -56s21 -56 53 -56s53 24 53 56zM433 0h-34c-6 0 -10 4 -10 10v56h-1c-24 -47 -74 -76 -139 -76c-106 0 -165 66 -165 181v296c0 6 4 10 10 10h34
c6 0 10 -4 10 -10v-282c0 -96 40 -143 123 -143c72 0 128 50 128 133v292c0 6 4 10 10 10h34c6 0 10 -4 10 -10v-457c0 -6 -4 -10 -10 -10z" />
    <glyph glyph-name="uhungarumlaut" unicode="&#x171;" horiz-adv-x="535" 
d="M433 0h-34c-6 0 -10 4 -10 10v56h-1c-24 -47 -74 -76 -139 -76c-106 0 -165 66 -165 181v296c0 6 4 10 10 10h34c6 0 10 -4 10 -10v-282c0 -96 40 -143 123 -143c72 0 128 50 128 133v292c0 6 4 10 10 10h34c6 0 10 -4 10 -10v-457c0 -6 -4 -10 -10 -10zM330 558h-24
c-6 0 -8 4 -5 10l67 122c4 7 8 10 16 10h32c6 0 8 -5 5 -10l-76 -123c-4 -6 -7 -9 -15 -9zM206 558h-24c-6 0 -9 4 -6 10l67 122c4 7 8 10 16 10h33c6 0 8 -5 5 -10l-76 -123c-4 -6 -7 -9 -15 -9z" />
    <glyph glyph-name="uogonek" unicode="&#x173;" horiz-adv-x="535" 
d="M376 -172c-42 0 -70 25 -70 68c0 33 17 64 83 111v59h-1c-24 -47 -74 -76 -139 -76c-106 0 -165 66 -165 181v296c0 6 4 10 10 10h34c6 0 10 -4 10 -10v-282c0 -96 40 -143 123 -143c72 0 128 50 128 133v292c0 6 4 10 10 10h34c6 0 10 -4 10 -10v-457c0 -5 -1 -7 -5 -10
c-70 -51 -83 -75 -83 -97c0 -18 11 -28 29 -28c9 0 18 3 28 9c5 3 10 2 13 -3l11 -21c2 -5 1 -9 -4 -13c-13 -10 -35 -19 -56 -19z" />
    <glyph glyph-name="wacute" unicode="&#x1e83;" horiz-adv-x="736" 
d="M381 558h-25c-6 0 -9 4 -6 10l77 122c4 7 9 10 17 10h38c6 0 9 -5 5 -10l-88 -122c-6 -7 -10 -10 -18 -10zM536 0h-31c-6 0 -10 3 -12 10l-124 381h-1l-126 -381c-2 -7 -5 -10 -12 -10h-30c-7 0 -10 3 -12 10l-149 457c-2 6 0 10 7 10h36c7 0 10 -3 13 -10l122 -381h1
l124 381c2 6 5 10 12 10h29c6 0 10 -4 12 -10l126 -381h1l119 381c3 7 6 10 13 10h36c7 0 9 -4 7 -10l-149 -457c-2 -7 -6 -10 -12 -10z" />
    <glyph glyph-name="wcircumflex" unicode="&#x175;" horiz-adv-x="736" 
d="M481 558h-25c-8 0 -11 2 -17 10l-71 85h-2l-70 -85c-7 -8 -10 -10 -17 -10h-25c-6 0 -8 5 -4 10l90 123c5 7 9 9 16 9h23c7 0 10 -2 15 -9l91 -123c4 -5 2 -10 -4 -10zM536 0h-31c-6 0 -10 3 -12 10l-124 381h-1l-126 -381c-2 -7 -5 -10 -12 -10h-30c-7 0 -10 3 -12 10
l-149 457c-2 6 0 10 7 10h36c7 0 10 -3 13 -10l122 -381h1l124 381c2 6 5 10 12 10h29c6 0 10 -4 12 -10l126 -381h1l119 381c3 7 6 10 13 10h36c7 0 9 -4 7 -10l-149 -457c-2 -7 -6 -10 -12 -10z" />
    <glyph glyph-name="wdieresis" unicode="&#x1e85;" horiz-adv-x="736" 
d="M487 604h-40c-6 0 -10 4 -10 10v56c0 6 4 10 10 10h40c6 0 10 -4 10 -10v-56c0 -6 -4 -10 -10 -10zM288 604h-40c-6 0 -10 4 -10 10v56c0 6 4 10 10 10h40c6 0 10 -4 10 -10v-56c0 -6 -4 -10 -10 -10zM536 0h-31c-6 0 -10 3 -12 10l-124 381h-1l-126 -381
c-2 -7 -5 -10 -12 -10h-30c-7 0 -10 3 -12 10l-149 457c-2 6 0 10 7 10h36c7 0 10 -3 13 -10l122 -381h1l124 381c2 6 5 10 12 10h29c6 0 10 -4 12 -10l126 -381h1l119 381c3 7 6 10 13 10h36c7 0 9 -4 7 -10l-149 -457c-2 -7 -6 -10 -12 -10z" />
    <glyph glyph-name="wgrave" unicode="&#x1e81;" horiz-adv-x="736" 
d="M536 0h-31c-6 0 -10 3 -12 10l-124 381h-1l-126 -381c-2 -7 -5 -10 -12 -10h-30c-7 0 -10 3 -12 10l-149 457c-2 6 0 10 7 10h36c7 0 10 -3 13 -10l122 -381h1l124 381c2 6 5 10 12 10h29c6 0 10 -4 12 -10l126 -381h1l119 381c3 7 6 10 13 10h36c7 0 9 -4 7 -10
l-149 -457c-2 -7 -6 -10 -12 -10zM378 558h-25c-8 0 -12 3 -18 10l-88 122c-4 5 -1 10 5 10h38c8 0 12 -3 16 -10l77 -122c4 -6 1 -10 -5 -10z" />
    <glyph glyph-name="yacute" unicode="&#xfd;" horiz-adv-x="467" 
d="M103 -180h-21c-6 0 -10 4 -10 10v32c0 6 4 10 10 10h18c41 0 63 17 90 89l19 49l-176 457c-2 6 0 10 7 10h38c7 0 10 -3 13 -10l145 -383h1l141 383c2 7 6 10 12 10h38c6 0 9 -4 7 -10l-195 -513c-41 -110 -75 -134 -137 -134zM235 558h-25c-6 0 -9 4 -6 10l77 122
c4 7 9 10 17 10h38c6 0 9 -5 5 -10l-88 -122c-6 -7 -10 -10 -18 -10z" />
    <glyph glyph-name="ycircumflex" unicode="&#x177;" horiz-adv-x="467" 
d="M103 -180h-21c-6 0 -10 4 -10 10v32c0 6 4 10 10 10h18c41 0 63 17 90 89l19 49l-176 457c-2 6 0 10 7 10h38c7 0 10 -3 13 -10l145 -383h1l141 383c2 7 6 10 12 10h38c6 0 9 -4 7 -10l-195 -513c-41 -110 -75 -134 -137 -134zM348 558h-25c-8 0 -11 2 -17 10l-71 85h-2
l-70 -85c-7 -8 -10 -10 -17 -10h-25c-6 0 -8 5 -4 10l90 123c5 7 9 9 16 9h23c7 0 10 -2 15 -9l91 -123c4 -5 2 -10 -4 -10z" />
    <glyph glyph-name="ydieresis" unicode="&#xff;" horiz-adv-x="467" 
d="M103 -180h-21c-6 0 -10 4 -10 10v32c0 6 4 10 10 10h18c41 0 63 17 90 89l19 49l-176 457c-2 6 0 10 7 10h38c7 0 10 -3 13 -10l145 -383h1l141 383c2 7 6 10 12 10h38c6 0 9 -4 7 -10l-195 -513c-41 -110 -75 -134 -137 -134zM354 604h-40c-6 0 -10 4 -10 10v56
c0 6 4 10 10 10h40c6 0 10 -4 10 -10v-56c0 -6 -4 -10 -10 -10zM155 604h-40c-6 0 -10 4 -10 10v56c0 6 4 10 10 10h40c6 0 10 -4 10 -10v-56c0 -6 -4 -10 -10 -10z" />
    <glyph glyph-name="ygrave" unicode="&#x1ef3;" horiz-adv-x="467" 
d="M103 -180h-21c-6 0 -10 4 -10 10v32c0 6 4 10 10 10h18c41 0 63 17 90 89l19 49l-176 457c-2 6 0 10 7 10h38c7 0 10 -3 13 -10l145 -383h1l141 383c2 7 6 10 12 10h38c6 0 9 -4 7 -10l-195 -513c-41 -110 -75 -134 -137 -134zM270 558h-25c-8 0 -12 3 -18 10l-88 122
c-4 5 -1 10 5 10h38c8 0 12 -3 16 -10l77 -122c4 -6 1 -10 -5 -10z" />
    <glyph glyph-name="zacute" unicode="&#x17a;" horiz-adv-x="467" 
d="M230 558h-25c-6 0 -9 4 -6 10l77 122c4 7 9 10 17 10h38c6 0 9 -5 5 -10l-88 -122c-6 -7 -10 -10 -18 -10zM401 0h-333c-6 0 -10 4 -10 10v30c0 4 1 8 5 13l283 371v1h-265c-6 0 -10 4 -10 10v32c0 6 4 10 10 10h320c6 0 10 -4 10 -10v-32c0 -5 -1 -8 -5 -13l-282 -369
v-2h277c6 0 10 -4 10 -10v-31c0 -6 -4 -10 -10 -10z" />
    <glyph glyph-name="zcaron" unicode="&#x17e;" horiz-adv-x="467" 
d="M246 558h-23c-7 0 -11 2 -16 9l-90 122c-4 5 -2 10 4 10h25c7 0 10 -2 17 -10l70 -85h2l71 85c6 8 9 10 17 10h25c6 0 8 -5 4 -10l-91 -122c-5 -7 -8 -9 -15 -9zM401 0h-333c-6 0 -10 4 -10 10v30c0 4 1 8 5 13l283 371v1h-265c-6 0 -10 4 -10 10v32c0 6 4 10 10 10h320
c6 0 10 -4 10 -10v-32c0 -5 -1 -8 -5 -13l-282 -369v-2h277c6 0 10 -4 10 -10v-31c0 -6 -4 -10 -10 -10z" />
    <glyph glyph-name="zdotaccent" unicode="&#x17c;" horiz-adv-x="467" 
d="M401 0h-333c-6 0 -10 4 -10 10v30c0 4 1 8 5 13l283 371v1h-265c-6 0 -10 4 -10 10v32c0 6 4 10 10 10h320c6 0 10 -4 10 -10v-32c0 -5 -1 -8 -5 -13l-282 -369v-2h277c6 0 10 -4 10 -10v-31c0 -6 -4 -10 -10 -10zM258 604h-44c-6 0 -10 4 -10 10v56c0 6 4 10 10 10h44
c6 0 10 -4 10 -10v-56c0 -6 -4 -10 -10 -10z" />
    <glyph glyph-name="grave.cap" horiz-adv-x="421" 
d="M281 764h-26c-8 0 -11 1 -18 9l-96 105c-4 5 -2 10 4 10h40c8 0 13 -3 18 -10l82 -104c5 -6 2 -10 -4 -10z" />
    <glyph glyph-name="acute" unicode="&#xb4;" horiz-adv-x="421" 
d="M173 558h-25c-6 0 -9 4 -6 10l77 122c4 7 9 10 17 10h38c6 0 9 -5 5 -10l-88 -122c-6 -7 -10 -10 -18 -10z" />
    <glyph glyph-name="acute.cap" horiz-adv-x="421" 
d="M171 764h-26c-6 0 -9 4 -4 10l82 104c5 7 10 10 18 10h40c6 0 8 -5 4 -10l-96 -105c-7 -8 -10 -9 -18 -9z" />
    <glyph glyph-name="circumflex" unicode="&#x2c6;" horiz-adv-x="421" 
d="M324 558h-25c-8 0 -11 2 -17 10l-71 85h-2l-70 -85c-7 -8 -10 -10 -17 -10h-25c-6 0 -8 5 -4 10l90 123c5 7 9 9 16 9h23c7 0 10 -2 15 -9l91 -123c4 -5 2 -10 -4 -10z" />
    <glyph glyph-name="circumflex.cap" horiz-adv-x="421" 
d="M324 754h-25c-8 0 -11 2 -17 10l-71 85h-2l-70 -85c-7 -8 -10 -10 -17 -10h-25c-6 0 -8 5 -4 10l90 123c5 7 9 9 16 9h23c7 0 10 -2 15 -9l91 -123c4 -5 2 -10 -4 -10z" />
    <glyph glyph-name="caron" unicode="&#x2c7;" horiz-adv-x="421" 
d="M222 558h-23c-7 0 -11 2 -16 9l-90 122c-4 5 -2 10 4 10h25c7 0 10 -2 17 -10l70 -85h2l71 85c6 8 9 10 17 10h25c6 0 8 -5 4 -10l-91 -122c-5 -7 -8 -9 -15 -9z" />
    <glyph glyph-name="caron.cap" horiz-adv-x="421" 
d="M222 754h-23c-7 0 -11 2 -16 9l-90 122c-4 5 -2 10 4 10h25c7 0 10 -2 17 -10l70 -85h2l71 85c6 8 9 10 17 10h25c6 0 8 -5 4 -10l-91 -122c-5 -7 -8 -9 -15 -9z" />
    <glyph glyph-name="caron.alt" horiz-adv-x="421" 
d="M190 535c-6 0 -9 4 -9 10v125c0 6 4 10 10 10h37c6 0 10 -4 10 -10v-48c0 -9 -1 -13 -5 -21l-32 -57c-3 -6 -6 -9 -11 -9z" />
    <glyph glyph-name="tilde" unicode="&#x2dc;" horiz-adv-x="421" 
d="M263 596c-24 0 -42 10 -60 21c-16 10 -31 18 -49 18c-23 0 -39 -14 -58 -33c-5 -4 -9 -2 -9 3v30c0 6 2 9 8 15c16 18 36 30 61 30c24 0 43 -10 60 -20c16 -11 31 -18 49 -18c23 0 40 13 59 33c4 4 8 2 8 -3v-30c0 -6 -1 -9 -7 -16c-17 -17 -37 -30 -62 -30z" />
    <glyph glyph-name="tilde.cap" horiz-adv-x="421" 
d="M263 782c-24 0 -42 10 -60 21c-16 10 -31 18 -49 18c-23 0 -39 -14 -58 -33c-5 -4 -9 -2 -9 3v30c0 6 2 9 8 15c16 18 36 30 61 30c24 0 43 -10 60 -20c16 -11 31 -18 49 -18c23 0 40 13 59 33c4 4 8 2 8 -3v-30c0 -6 -1 -9 -7 -16c-17 -17 -37 -30 -62 -30z" />
    <glyph glyph-name="dieresis" unicode="&#xa8;" horiz-adv-x="421" 
d="M330 604h-40c-6 0 -10 4 -10 10v56c0 6 4 10 10 10h40c6 0 10 -4 10 -10v-56c0 -6 -4 -10 -10 -10zM131 604h-40c-6 0 -10 4 -10 10v56c0 6 4 10 10 10h40c6 0 10 -4 10 -10v-56c0 -6 -4 -10 -10 -10z" />
    <glyph glyph-name="dieresis.cap" horiz-adv-x="421" 
d="M330 786h-39c-6 0 -10 4 -10 10v56c0 6 4 10 10 10h39c6 0 10 -4 10 -10v-56c0 -6 -4 -10 -10 -10zM130 786h-39c-6 0 -10 4 -10 10v56c0 6 4 10 10 10h39c6 0 10 -4 10 -10v-56c0 -6 -4 -10 -10 -10z" />
    <glyph glyph-name="macron" unicode="&#xaf;" horiz-adv-x="421" 
d="M330 618h-240c-6 0 -10 4 -10 10v26c0 6 4 10 10 10h240c6 0 10 -4 10 -10v-26c0 -6 -4 -10 -10 -10z" />
    <glyph glyph-name="macron.cap" horiz-adv-x="421" 
d="M330 800h-240c-6 0 -10 4 -10 10v26c0 6 4 10 10 10h240c6 0 10 -4 10 -10v-26c0 -6 -4 -10 -10 -10z" />
    <glyph glyph-name="uni02C9" unicode="&#x2c9;" horiz-adv-x="421" 
d="M332 800h-244c-6 0 -10 4 -10 10v26c0 6 4 10 10 10h244c6 0 10 -4 10 -10v-26c0 -6 -4 -10 -10 -10z" />
    <glyph glyph-name="breve" unicode="&#x2d8;" horiz-adv-x="421" 
d="M210 570c-68 0 -116 43 -124 104c-1 6 3 10 9 10h19c7 0 10 -4 12 -10c11 -39 40 -60 84 -60c45 0 74 21 86 60c2 6 4 10 11 10h19c6 0 10 -4 9 -10c-9 -61 -56 -104 -125 -104z" />
    <glyph glyph-name="breve.cap" horiz-adv-x="421" 
d="M210 768c-68 0 -116 42 -124 103c-1 6 3 10 9 10h19c7 0 10 -3 12 -10c11 -39 40 -59 84 -59c45 0 74 20 86 59c2 7 4 10 11 10h19c6 0 10 -4 9 -10c-9 -61 -56 -103 -125 -103z" />
    <glyph glyph-name="ring" unicode="&#x2da;" horiz-adv-x="421" 
d="M298 629c0 -51 -37 -88 -88 -88s-88 37 -88 88s37 88 88 88s88 -37 88 -88zM263 629c0 32 -21 56 -53 56s-53 -24 -53 -56s21 -56 53 -56s53 24 53 56z" />
    <glyph glyph-name="ring.cap" horiz-adv-x="421" 
d="M298 826c0 -51 -37 -88 -88 -88s-88 37 -88 88s37 88 88 88s88 -37 88 -88zM263 826c0 32 -21 56 -53 56s-53 -24 -53 -56s21 -56 53 -56s53 24 53 56z" />
    <glyph glyph-name="hungarumlaut" unicode="&#x2dd;" horiz-adv-x="421" 
d="M243 558h-24c-6 0 -8 4 -5 10l67 122c4 7 8 10 16 10h32c6 0 8 -5 5 -10l-76 -123c-4 -6 -7 -9 -15 -9zM119 558h-24c-6 0 -9 4 -6 10l67 122c4 7 8 10 16 10h33c6 0 8 -5 5 -10l-76 -123c-4 -6 -7 -9 -15 -9z" />
    <glyph glyph-name="hungarumlaut.cap" horiz-adv-x="421" 
d="M257 764h-25c-6 0 -8 5 -4 10l67 105c5 7 8 10 16 10h34c6 0 8 -5 4 -10l-76 -105c-5 -7 -8 -10 -16 -10zM133 764h-25c-6 0 -8 5 -4 10l67 105c4 7 8 10 16 10h33c6 0 8 -5 4 -10l-75 -105c-5 -7 -9 -10 -16 -10z" />
    <glyph glyph-name="dotaccent" unicode="&#x2d9;" horiz-adv-x="421" 
d="M232 604h-44c-6 0 -10 4 -10 10v56c0 6 4 10 10 10h44c6 0 10 -4 10 -10v-56c0 -6 -4 -10 -10 -10z" />
    <glyph glyph-name="dotaccent.cap" horiz-adv-x="421" 
d="M232 786h-44c-6 0 -10 4 -10 10v56c0 6 4 10 10 10h44c6 0 10 -4 10 -10v-56c0 -6 -4 -10 -10 -10z" />
    <glyph glyph-name="cedilla" unicode="&#xb8;" horiz-adv-x="421" 
d="M200 -148h-31c-6 0 -9 4 -7 10l54 138c3 7 6 10 13 10h26c6 0 9 -4 7 -10l-46 -138c-3 -8 -7 -10 -16 -10z" />
    <glyph glyph-name="ogonek" unicode="&#x2db;" horiz-adv-x="421" 
d="M210 -172c-42 0 -70 25 -70 68c0 33 17 63 72 104c10 8 16 10 24 10h34c6 0 7 -7 2 -10c-70 -51 -83 -76 -83 -97c0 -18 11 -28 29 -28c9 0 18 3 28 9c5 3 10 2 13 -3l11 -21c2 -5 1 -9 -4 -13c-13 -10 -35 -19 -56 -19z" />
    <glyph glyph-name="commaaccent" horiz-adv-x="421" 
d="M191 -195c-6 0 -9 3 -9 9v120c0 6 4 10 10 10h37c6 0 10 -4 10 -10v-42c0 -10 -1 -14 -5 -22l-32 -57c-3 -6 -6 -8 -11 -8z" />
    <glyph glyph-name="commaaccent.alt" horiz-adv-x="421" 
d="M229 572h-37c-6 0 -10 4 -10 10v46c0 10 1 14 5 22l32 57c3 6 6 8 11 8c6 0 9 -3 9 -9v-124c0 -6 -4 -10 -10 -10z" />
    <glyph glyph-name="ellipsis" unicode="&#x2026;" horiz-adv-x="657" 
d="M572 0h-49c-6 0 -10 4 -10 10v67c0 6 4 10 10 10h49c6 0 10 -4 10 -10v-67c0 -6 -4 -10 -10 -10zM353 0h-49c-6 0 -10 4 -10 10v67c0 6 4 10 10 10h49c6 0 10 -4 10 -10v-67c0 -6 -4 -10 -10 -10zM134 0h-49c-6 0 -10 4 -10 10v67c0 6 4 10 10 10h49c6 0 10 -4 10 -10
v-67c0 -6 -4 -10 -10 -10z" />
    <glyph glyph-name="uni00AD" unicode="&#xad;" horiz-adv-x="373" 
d="M315 241h-256c-6 0 -10 4 -10 10v31c0 6 4 10 10 10h256c6 0 10 -4 10 -10v-31c0 -6 -4 -10 -10 -10z" />
    <glyph glyph-name="exclamdown" unicode="&#xa1;" horiz-adv-x="266" 
d="M144 300c6 0 10 -4 10 -10l8 -483c0 -6 -4 -10 -10 -10h-39c-6 0 -10 4 -10 10l8 483c0 6 4 10 10 10h23zM168 467v-67c0 -6 -4 -10 -10 -10h-50c-6 0 -10 4 -10 10v67c0 6 4 10 10 10h50c6 0 10 -4 10 -10z" />
    <glyph glyph-name="questiondown" unicode="&#xbf;" horiz-adv-x="446" 
d="M253 293v-39c0 -41 -7 -66 -32 -98l-55 -73c-50 -61 -61 -89 -61 -131c0 -72 51 -113 118 -113c66 0 110 40 124 112c1 6 5 9 11 8l34 -6c6 -1 9 -6 8 -12c-14 -90 -79 -154 -178 -154c-103 0 -172 69 -172 165c0 54 17 91 61 144l55 74c27 33 32 50 32 88v35
c0 6 4 10 10 10h35c6 0 10 -4 10 -10zM261 467v-67c0 -6 -4 -10 -10 -10h-50c-6 0 -10 4 -10 10v67c0 6 4 10 10 10h50c6 0 10 -4 10 -10z" />
    <glyph glyph-name="quoteleft" unicode="&#x2018;" horiz-adv-x="207" 
d="M124 681c5 0 9 -4 9 -10v-140c0 -6 -4 -10 -10 -10h-39c-6 0 -10 4 -10 10v69c0 10 1 16 5 22l34 52c4 6 7 7 11 7z" />
    <glyph glyph-name="quoteright" unicode="&#x2019;" horiz-adv-x="207" 
d="M83 520c-5 0 -9 4 -9 10v140c0 6 4 10 10 10h39c6 0 10 -4 10 -10v-69c0 -10 -1 -16 -5 -22l-34 -52c-4 -6 -7 -7 -11 -7z" />
    <glyph glyph-name="quotedblleft" unicode="&#x201c;" horiz-adv-x="346" 
d="M263 681c5 0 9 -4 9 -10v-140c0 -6 -4 -10 -10 -10h-39c-6 0 -10 4 -10 10v69c0 10 1 16 5 22l34 52c4 6 7 7 11 7zM124 681c5 0 9 -4 9 -10v-140c0 -6 -4 -10 -10 -10h-39c-6 0 -10 4 -10 10v69c0 10 1 16 5 22l34 52c4 6 7 7 11 7z" />
    <glyph glyph-name="quotedblright" unicode="&#x201d;" horiz-adv-x="346" 
d="M222 520c-5 0 -9 4 -9 10v140c0 6 4 10 10 10h39c6 0 10 -4 10 -10v-69c0 -10 -1 -16 -5 -22l-34 -52c-4 -6 -7 -7 -11 -7zM83 520c-5 0 -9 4 -9 10v140c0 6 4 10 10 10h39c6 0 10 -4 10 -10v-69c0 -10 -1 -16 -5 -22l-34 -52c-4 -6 -7 -7 -11 -7z" />
    <glyph glyph-name="quotesinglbase" unicode="&#x201a;" horiz-adv-x="207" 
d="M83 -83c-5 0 -9 4 -9 10v140c0 6 4 10 10 10h39c6 0 10 -4 10 -10v-69c0 -10 -1 -16 -5 -22l-34 -52c-4 -6 -7 -7 -11 -7z" />
    <glyph glyph-name="quotedblbase" unicode="&#x201e;" horiz-adv-x="346" 
d="M222 -56c-5 0 -9 4 -9 10v140c0 6 4 10 10 10h39c6 0 10 -4 10 -10v-69c0 -10 -1 -16 -5 -22l-34 -52c-4 -6 -7 -7 -11 -7zM83 -56c-5 0 -9 4 -9 10v140c0 6 4 10 10 10h39c6 0 10 -4 10 -10v-69c0 -10 -1 -16 -5 -22l-34 -52c-4 -6 -7 -7 -11 -7z" />
    <glyph glyph-name="guilsinglleft" unicode="&#x2039;" horiz-adv-x="326" 
d="M240 81l-171 176c-4 4 -4 10 0 14l171 176c4 4 10 2 10 -4v-45c0 -8 -1 -12 -7 -18l-111 -112c-3 -3 -3 -5 0 -8l111 -112c6 -6 7 -10 7 -18v-45c0 -6 -6 -8 -10 -4z" />
    <glyph glyph-name="guilsinglright" unicode="&#x203a;" horiz-adv-x="326" 
d="M257 257l-171 -176c-4 -4 -10 -2 -10 4v45c0 8 1 12 7 18l111 112c3 3 3 5 0 8l-111 112c-6 6 -7 10 -7 18v45c0 6 6 8 10 4l171 -176c4 -4 4 -10 0 -14z" />
    <glyph glyph-name="guillemotleft" unicode="&#xab;" horiz-adv-x="528" 
d="M442 81l-171 176c-4 4 -4 10 0 14l171 176c4 4 10 2 10 -4v-45c0 -8 -1 -12 -7 -18l-111 -112c-3 -3 -3 -5 0 -8l111 -112c6 -6 7 -10 7 -18v-45c0 -6 -6 -8 -10 -4zM240 81l-171 176c-4 4 -4 10 0 14l171 176c4 4 10 2 10 -4v-45c0 -8 -1 -12 -7 -18l-111 -112
c-3 -3 -3 -5 0 -8l111 -112c6 -6 7 -10 7 -18v-45c0 -6 -6 -8 -10 -4z" />
    <glyph glyph-name="guillemotright" unicode="&#xbb;" horiz-adv-x="528" 
d="M288 81c-4 -4 -10 -2 -10 4v45c0 8 1 12 7 18l111 112c3 3 3 5 0 8l-111 112c-6 6 -7 10 -7 18v45c0 6 6 8 10 4l171 -176c4 -4 4 -10 0 -14zM86 81c-4 -4 -10 -2 -10 4v45c0 8 1 12 7 18l111 112c3 3 3 5 0 8l-111 112c-6 6 -7 10 -7 18v45c0 6 6 8 10 4l171 -176
c4 -4 4 -10 0 -14z" />
    <glyph glyph-name="endash" unicode="&#x2013;" horiz-adv-x="504" 
d="M467 242h-430c-6 0 -10 4 -10 10v29c0 6 4 10 10 10h430c6 0 10 -4 10 -10v-29c0 -6 -4 -10 -10 -10z" />
    <glyph glyph-name="emdash" unicode="&#x2014;" horiz-adv-x="830" 
d="M793 242h-756c-6 0 -10 4 -10 10v29c0 6 4 10 10 10h756c6 0 10 -4 10 -10v-29c0 -6 -4 -10 -10 -10z" />
    <glyph glyph-name="bullet" unicode="&#x2022;" horiz-adv-x="423" 
d="M211 192c-65 0 -114 49 -114 116s49 116 114 116c66 0 115 -49 115 -116s-49 -116 -115 -116z" />
    <glyph glyph-name="periodcentered" unicode="&#xb7;" horiz-adv-x="219" 
d="M134 222h-49c-6 0 -10 4 -10 10v67c0 6 4 10 10 10h49c6 0 10 -4 10 -10v-67c0 -6 -4 -10 -10 -10z" />
    <glyph glyph-name="uni2219" unicode="&#x2219;" horiz-adv-x="219" 
d="M134 222h-49c-6 0 -10 4 -10 10v67c0 6 4 10 10 10h49c6 0 10 -4 10 -10v-67c0 -6 -4 -10 -10 -10z" />
    <glyph glyph-name="dagger" unicode="&#x2020;" horiz-adv-x="447" 
d="M240 -180h-33c-6 0 -10 4 -10 10v544c0 4 -2 6 -6 6h-137c-6 0 -10 4 -10 10v29c0 6 4 10 10 10h137c4 0 6 2 6 6v235c0 6 4 10 10 10h33c6 0 10 -4 10 -10v-235c0 -4 2 -6 6 -6h137c6 0 10 -4 10 -10v-29c0 -6 -4 -10 -10 -10h-137c-4 0 -6 -2 -6 -6v-544
c0 -6 -4 -10 -10 -10z" />
    <glyph glyph-name="daggerdbl" unicode="&#x2021;" horiz-adv-x="447" 
d="M240 -180h-33c-6 0 -10 4 -10 10v208c0 4 -2 6 -6 6h-137c-6 0 -10 4 -10 10v29c0 6 4 10 10 10h137c4 0 6 2 6 6v304c0 4 -2 6 -6 6h-137c-6 0 -10 4 -10 10v29c0 6 4 10 10 10h137c4 0 6 2 6 6v206c0 6 4 10 10 10h33c6 0 10 -4 10 -10v-206c0 -4 2 -6 6 -6h137
c6 0 10 -4 10 -10v-29c0 -6 -4 -10 -10 -10h-137c-4 0 -6 -2 -6 -6v-304c0 -4 2 -6 6 -6h137c6 0 10 -4 10 -10v-29c0 -6 -4 -10 -10 -10h-137c-4 0 -6 -2 -6 -6v-208c0 -6 -4 -10 -10 -10z" />
    <glyph glyph-name="section" unicode="&#xa7;" horiz-adv-x="530" 
d="M262 -190c-97 0 -156 55 -159 146c0 5 2 10 8 11l32 7c6 2 10 -2 11 -7c0 -78 48 -108 108 -108c64 0 108 34 108 101c0 64 -39 95 -138 115c-98 20 -140 83 -140 178c0 75 34 142 109 163v1c-60 29 -87 65 -87 131c0 82 64 142 153 142c98 0 149 -64 150 -135
c0 -6 -2 -10 -7 -11l-32 -7c-6 -2 -10 2 -10 7c-3 59 -37 97 -100 97c-62 0 -101 -34 -101 -93c0 -63 32 -96 131 -117c95 -22 140 -82 140 -178c0 -78 -36 -141 -106 -163v-1c52 -21 90 -58 90 -131c0 -93 -70 -148 -160 -148zM265 124c70 0 121 45 121 129
s-51 128 -121 128c-71 0 -121 -44 -121 -128s50 -129 121 -129z" />
    <glyph glyph-name="paragraph" unicode="&#xb6;" horiz-adv-x="570" 
d="M471 -180h-31c-6 0 -10 4 -10 10v794c0 4 -2 6 -6 6h-96c-4 0 -6 -2 -6 -6v-794c0 -6 -4 -10 -10 -10h-31c-6 0 -10 4 -10 10v436c-120 7 -193 93 -193 207c0 116 76 207 220 207h173c6 0 10 -4 10 -10v-840c0 -6 -4 -10 -10 -10z" />
    <glyph glyph-name="brokenbar" unicode="&#xa6;" horiz-adv-x="246" 
d="M137 388h-28c-6 0 -10 4 -10 10v332c0 6 4 10 10 10h28c6 0 10 -4 10 -10v-332c0 -6 -4 -10 -10 -10zM137 -84h-28c-6 0 -10 4 -10 10v336c0 6 4 10 10 10h28c6 0 10 -4 10 -10v-336c0 -6 -4 -10 -10 -10z" />
    <glyph glyph-name="copyright" unicode="&#xa9;" horiz-adv-x="830" 
d="M415 -10c-199 0 -350 151 -350 350s151 350 350 350s350 -151 350 -350s-151 -350 -350 -350zM415 32c175 0 307 132 307 308s-132 308 -307 308s-307 -132 -307 -308s132 -308 307 -308zM422 144c-70 0 -123 35 -144 102c-7 21 -11 44 -11 94s4 73 11 94
c21 67 74 102 144 102c62 0 107 -30 131 -70c3 -5 1 -10 -4 -13l-17 -16c-5 -2 -10 -1 -14 3c-21 32 -48 53 -96 53c-50 0 -85 -23 -101 -72c-6 -18 -9 -36 -9 -81s3 -63 9 -81c16 -49 51 -72 101 -72c48 0 75 21 96 53c4 4 9 5 14 3l17 -16c5 -3 7 -8 4 -13
c-24 -40 -69 -70 -131 -70z" />
    <glyph glyph-name="registered" unicode="&#xae;" horiz-adv-x="459" 
d="M230 300c-110 0 -193 83 -193 193c0 109 83 192 193 192c109 0 192 -83 192 -192c0 -110 -83 -193 -192 -193zM230 329c92 0 162 69 162 164c0 94 -70 163 -162 163c-94 0 -163 -69 -163 -163c0 -95 69 -164 163 -164zM181 386h-15c-6 0 -9 3 -9 9v198c0 6 3 9 9 9h79
c43 0 68 -25 68 -63c0 -29 -14 -51 -42 -59l42 -84c4 -7 0 -10 -6 -10h-17c-5 0 -8 4 -10 7l-42 83h-45c-2 0 -3 -1 -3 -2v-79c0 -6 -4 -9 -9 -9zM244 506c27 0 38 12 38 33s-11 34 -38 34h-51c-2 0 -3 -1 -3 -2v-63c0 -2 1 -2 3 -2h51z" />
    <glyph glyph-name="trademark" unicode="&#x2122;" horiz-adv-x="817" 
d="M756 286h-22c-6 0 -10 4 -10 10v283h-2l-112 -229c-3 -6 -6 -8 -12 -8h-19c-6 0 -9 2 -12 8l-112 229h-2v-283c0 -6 -4 -10 -10 -10h-22c-6 0 -10 4 -10 10v374c0 6 4 10 10 10h23c6 0 10 -3 13 -9l131 -274h3l129 274c3 6 6 9 12 9h24c6 0 10 -4 10 -10v-374
c0 -6 -4 -10 -10 -10zM201 286h-24c-6 0 -10 4 -10 10v337c0 4 -2 6 -6 6h-110c-6 0 -10 4 -10 10v21c0 6 4 10 10 10h276c6 0 10 -4 10 -10v-21c0 -6 -4 -10 -10 -10h-110c-4 0 -6 -2 -6 -6v-337c0 -6 -4 -10 -10 -10z" />
    <glyph glyph-name="currency" unicode="&#xa4;" 
d="M482 129l-20 -23c-5 -4 -10 -4 -14 0l-65 65c-32 -24 -72 -38 -116 -38c-45 0 -85 14 -117 38l-64 -64c-4 -4 -9 -5 -14 0l-20 22c-5 5 -5 9 0 14l63 63c-24 32 -37 72 -37 117s14 85 38 117l-64 64c-4 4 -5 9 0 14l20 22c5 5 10 4 14 0l65 -65c31 24 71 38 116 38
c44 0 83 -14 115 -38l65 65c4 4 10 5 14 0l20 -22c5 -5 5 -10 0 -14l-64 -64c24 -32 38 -72 38 -117s-14 -85 -37 -116l64 -64c4 -5 4 -10 0 -14zM267 180c81 0 139 63 139 143s-58 143 -139 143s-140 -63 -140 -143s59 -143 140 -143z" />
    <glyph glyph-name="Euro" unicode="&#x20ac;" 
d="M302 -10c-92 0 -153 46 -180 127c-9 30 -13 57 -13 136c0 4 -2 6 -6 6h-47c-6 0 -10 4 -10 10v25c0 6 4 10 10 10h47c4 0 6 2 6 6v66c0 4 -2 6 -6 6h-47c-6 0 -10 4 -10 10v25c0 6 4 10 10 10h47c4 0 6 2 6 6c0 68 4 100 13 130c27 81 88 127 180 127
c94 0 150 -54 176 -116c3 -6 0 -11 -5 -13l-27 -15c-5 -2 -10 0 -13 6c-26 51 -65 86 -131 86c-64 0 -107 -30 -126 -88c-9 -24 -12 -53 -12 -117c0 -4 2 -6 6 -6h213c6 0 10 -5 8 -11l-8 -24c-2 -6 -6 -10 -12 -10h-201c-4 0 -6 -2 -6 -6v-66c0 -4 2 -6 6 -6h183
c6 0 10 -5 8 -11l-8 -24c-2 -6 -6 -10 -12 -10h-171c-4 0 -6 -2 -6 -6c0 -76 3 -99 12 -123c19 -58 62 -88 126 -88c66 0 105 35 131 86c3 6 8 8 13 6l27 -15c5 -2 8 -7 5 -13c-26 -62 -82 -116 -176 -116z" />
    <glyph glyph-name="cent" unicode="&#xa2;" 
d="M296 568v-81c71 -4 121 -36 150 -89c3 -5 2 -10 -3 -14l-24 -20c-4 -4 -11 -2 -14 3c-27 44 -56 65 -109 68v-393c53 3 83 25 109 68c3 5 10 7 14 3l24 -20c5 -5 6 -9 3 -15c-29 -49 -79 -84 -150 -88v-82c0 -6 -4 -10 -10 -10h-18c-6 0 -10 4 -10 10v84
c-78 7 -133 50 -155 122c-9 29 -16 68 -16 124c0 57 7 95 16 125c22 70 77 115 155 122v83c0 6 4 10 10 10h18c6 0 10 -4 10 -10zM142 238c0 -48 5 -81 14 -107c16 -51 51 -81 102 -88v390c-51 -7 -86 -37 -102 -88c-9 -26 -14 -58 -14 -107z" />
    <glyph glyph-name="sterling" unicode="&#xa3;" 
d="M440 0h-328c-6 0 -10 4 -10 10v31c0 5 2 8 5 11c31 31 39 50 39 102v137c0 4 -2 6 -6 6h-50c-6 0 -10 4 -10 10v27c0 6 4 10 10 10h50c4 0 6 2 6 6v169c0 110 60 171 152 171c78 0 129 -49 146 -120c1 -6 -2 -10 -8 -12l-32 -9c-6 -2 -11 1 -12 7c-12 52 -46 82 -95 82
c-56 0 -96 -35 -96 -112v-176c0 -4 2 -6 6 -6h136c6 0 10 -4 10 -10v-27c0 -6 -4 -10 -10 -10h-136c-4 0 -6 -2 -6 -6v-131c0 -50 -9 -81 -32 -107v-1h271c6 0 10 -4 10 -10v-32c0 -6 -4 -10 -10 -10z" />
    <glyph glyph-name="florin" unicode="&#x192;" 
d="M415 348h-107l-59 -385c-17 -107 -56 -143 -146 -143h-21c-6 0 -10 4 -10 10v31c0 6 4 10 10 10h23c55 0 79 20 90 89l59 388h-86c-6 0 -10 4 -10 10v27c0 6 4 10 10 10h94l22 143c16 105 55 142 145 142h21c6 0 10 -4 10 -10v-31c0 -6 -4 -10 -10 -10h-24
c-54 0 -78 -22 -88 -89l-23 -145h100c6 0 10 -4 10 -10v-27c0 -6 -4 -10 -10 -10z" />
    <glyph glyph-name="yen" unicode="&#xa5;" 
d="M283 0h-34c-6 0 -10 4 -10 10v145c0 4 -2 6 -6 6h-132c-6 0 -10 4 -10 10v25c0 6 4 10 10 10h132c4 0 6 2 6 6v60c0 4 -2 6 -6 6h-132c-6 0 -10 4 -10 10v25c0 6 4 10 10 10h120v1l-161 343c-3 7 0 13 8 13h35c8 0 12 -3 15 -10l148 -327h2l147 327c3 7 7 10 15 10h34
c8 0 11 -6 8 -13l-161 -343v-1h120c6 0 10 -4 10 -10v-25c0 -6 -4 -10 -10 -10h-132c-4 0 -6 -2 -6 -6v-60c0 -4 2 -6 6 -6h132c6 0 10 -4 10 -10v-25c0 -6 -4 -10 -10 -10h-132c-4 0 -6 -2 -6 -6v-145c0 -6 -4 -10 -10 -10z" />
    <glyph glyph-name="ordfeminine" unicode="&#xaa;" horiz-adv-x="340" 
d="M275 392h-24c-6 0 -10 4 -10 10v20h-2c-15 -22 -47 -36 -93 -36c-58 0 -101 30 -101 86c0 62 44 91 120 91h69c4 0 6 2 6 6v20c0 40 -16 56 -76 56c-34 0 -57 -7 -75 -19c-5 -4 -11 -3 -14 1l-10 19c-3 5 -3 11 2 14c21 16 55 27 101 27c86 0 117 -26 117 -97v-188
c0 -6 -4 -10 -10 -10zM158 426c48 0 82 23 82 54v39c0 4 -2 6 -6 6h-65c-54 0 -79 -17 -79 -49s26 -50 68 -50z" />
    <glyph glyph-name="ordmasculine" unicode="&#xba;" horiz-adv-x="346" 
d="M173 385c-61 0 -101 26 -119 80c-6 18 -10 39 -10 71s4 53 10 71c18 54 58 80 119 80s101 -26 119 -80c6 -18 10 -39 10 -71s-4 -53 -10 -71c-18 -54 -58 -80 -119 -80zM173 428c38 0 62 17 73 52c5 14 8 31 8 56s-3 42 -8 56c-11 35 -35 52 -73 52s-62 -17 -73 -52
c-5 -14 -8 -31 -8 -56s3 -42 8 -56c11 -35 35 -52 73 -52z" />
    <glyph glyph-name="onesuperior" unicode="&#xb9;" horiz-adv-x="331" 
d="M196 430h-26c-6 0 -10 4 -10 10v339h-1l-69 -47c-5 -3 -10 -1 -10 5v32c0 7 2 11 7 14l68 47c6 4 10 6 16 6h25c6 0 10 -4 10 -10v-386c0 -6 -4 -10 -10 -10z" />
    <glyph glyph-name="twosuperior" unicode="&#xb2;" horiz-adv-x="331" 
d="M278 430h-225c-6 0 -10 4 -10 10v23c0 5 2 9 6 14l156 181c21 24 34 49 34 74c0 39 -27 68 -70 68c-40 0 -66 -23 -75 -60c-1 -6 -6 -9 -12 -8l-23 5c-6 1 -10 5 -9 12c8 47 50 94 119 94c74 0 116 -50 116 -111c0 -37 -15 -66 -44 -101l-137 -156v-2h174
c6 0 10 -4 10 -10v-23c0 -6 -4 -10 -10 -10z" />
    <glyph glyph-name="threesuperior" unicode="&#xb3;" horiz-adv-x="331" 
d="M166 423c-68 0 -111 35 -125 83c-2 6 0 10 6 12l25 7c6 2 9 0 12 -6c12 -28 38 -53 81 -53c48 0 79 32 79 76s-32 77 -81 77h-18c-6 0 -10 4 -10 10v23c0 6 4 10 10 10h15c45 0 75 27 75 70c0 40 -27 68 -73 68c-43 0 -63 -22 -73 -47c-2 -6 -5 -9 -11 -8l-23 6
c-6 1 -9 5 -8 11c10 42 48 81 116 81c73 0 118 -46 118 -109c0 -43 -24 -72 -52 -90v-1c27 -11 61 -44 61 -100c0 -70 -50 -120 -124 -120z" />
    <glyph glyph-name="fraction" unicode="&#x2044;" horiz-adv-x="151" 
d="M-112 -10h-27c-6 0 -9 4 -6 10l394 680c4 7 7 10 14 10h27c6 0 9 -4 6 -10l-394 -680c-4 -7 -7 -10 -14 -10z" />
    <glyph glyph-name="uni2215" unicode="&#x2215;" horiz-adv-x="151" 
d="M-112 -10h-27c-6 0 -9 4 -6 10l394 680c4 7 7 10 14 10h27c6 0 9 -4 6 -10l-394 -680c-4 -7 -7 -10 -14 -10z" />
    <glyph glyph-name="onehalf" unicode="&#xbd;" horiz-adv-x="859" 
d="M214 274h-26c-6 0 -10 4 -10 10v339h-1l-69 -47c-5 -3 -10 -1 -10 5v32c0 7 2 11 7 14l68 47c6 4 10 6 16 6h25c6 0 10 -4 10 -10v-386c0 -6 -4 -10 -10 -10zM751 0h-225c-6 0 -10 4 -10 10v23c0 5 2 9 6 14l156 181c21 24 34 49 34 74c0 39 -27 68 -70 68
c-40 0 -66 -23 -75 -60c-1 -6 -6 -9 -12 -8l-23 5c-6 1 -10 5 -9 12c8 47 50 94 119 94c74 0 116 -50 116 -111c0 -37 -15 -66 -44 -101l-137 -156v-2h174c6 0 10 -4 10 -10v-23c0 -6 -4 -10 -10 -10zM212 -10h-27c-6 0 -9 4 -6 10l394 680c4 7 7 10 14 10h27
c6 0 9 -4 6 -10l-394 -680c-4 -7 -7 -10 -14 -10z" />
    <glyph glyph-name="onethird" unicode="&#x2153;" horiz-adv-x="868" 
d="M214 274h-26c-6 0 -10 4 -10 10v339h-1l-69 -47c-5 -3 -10 -1 -10 5v32c0 7 2 11 7 14l68 47c6 4 10 6 16 6h25c6 0 10 -4 10 -10v-386c0 -6 -4 -10 -10 -10zM212 -10h-27c-6 0 -9 4 -6 10l394 680c4 7 7 10 14 10h27c6 0 9 -4 6 -10l-394 -680c-4 -7 -7 -10 -14 -10z
M646 -7c-68 0 -111 35 -125 83c-2 6 0 10 6 12l25 7c6 2 9 0 12 -6c12 -28 38 -53 81 -53c48 0 79 32 79 76s-32 77 -81 77h-18c-6 0 -10 4 -10 10v23c0 6 4 10 10 10h15c45 0 75 27 75 70c0 40 -27 68 -73 68c-43 0 -63 -22 -73 -47c-2 -6 -5 -9 -11 -8l-23 6
c-6 1 -9 5 -8 11c10 42 48 81 116 81c73 0 118 -46 118 -109c0 -43 -24 -72 -52 -90v-1c27 -11 61 -44 61 -100c0 -70 -50 -120 -124 -120z" />
    <glyph glyph-name="onequarter" unicode="&#xbc;" horiz-adv-x="828" 
d="M214 274h-26c-6 0 -10 4 -10 10v339h-1l-69 -47c-5 -3 -10 -1 -10 5v32c0 7 2 11 7 14l68 47c6 4 10 6 16 6h25c6 0 10 -4 10 -10v-386c0 -6 -4 -10 -10 -10zM669 0h-25c-6 0 -10 4 -10 10v60c0 4 -2 6 -6 6h-161c-6 0 -10 4 -10 10v22c0 7 1 10 4 16l133 272
c3 7 7 10 13 10h29c6 0 9 -5 6 -10l-133 -276v-1h119c4 0 6 2 6 6v98c0 6 4 10 10 10h25c6 0 10 -4 10 -10v-98c0 -4 2 -6 6 -6h36c6 0 10 -4 10 -10v-23c0 -6 -4 -10 -10 -10h-36c-4 0 -6 -2 -6 -6v-60c0 -6 -4 -10 -10 -10zM212 -10h-27c-6 0 -9 4 -6 10l394 680
c4 7 7 10 14 10h27c6 0 9 -4 6 -10l-394 -680c-4 -7 -7 -10 -14 -10z" />
    <glyph glyph-name="oneeighth" unicode="&#x215b;" horiz-adv-x="869" 
d="M214 274h-26c-6 0 -10 4 -10 10v339h-1l-69 -47c-5 -3 -10 -1 -10 5v32c0 7 2 11 7 14l68 47c6 4 10 6 16 6h25c6 0 10 -4 10 -10v-386c0 -6 -4 -10 -10 -10zM642 -7c-76 0 -130 48 -130 120c0 50 29 85 62 100v2c-28 15 -52 45 -52 86c0 63 49 112 120 112
c70 0 119 -49 119 -112c0 -41 -24 -71 -52 -86v-2c34 -15 63 -50 63 -100c0 -72 -54 -120 -130 -120zM642 233c41 0 73 29 73 68c0 40 -32 69 -73 69s-74 -29 -74 -69c0 -39 33 -68 74 -68zM642 36c49 0 84 32 84 78s-35 78 -84 78s-84 -32 -84 -78s35 -78 84 -78zM212 -10
h-27c-6 0 -9 4 -6 10l394 680c4 7 7 10 14 10h27c6 0 9 -4 6 -10l-394 -680c-4 -7 -7 -10 -14 -10z" />
    <glyph glyph-name="twothirds" unicode="&#x2154;" horiz-adv-x="963" 
d="M332 274h-225c-6 0 -10 4 -10 10v23c0 5 2 9 6 14l156 181c21 24 34 49 34 74c0 39 -27 68 -70 68c-40 0 -66 -23 -75 -60c-1 -6 -6 -9 -12 -8l-23 5c-6 1 -10 5 -9 12c8 47 50 94 119 94c74 0 116 -50 116 -111c0 -37 -15 -66 -44 -101l-137 -156v-2h174
c6 0 10 -4 10 -10v-23c0 -6 -4 -10 -10 -10zM307 -10h-27c-6 0 -9 4 -6 10l394 680c4 7 7 10 14 10h27c6 0 9 -4 6 -10l-394 -680c-4 -7 -7 -10 -14 -10zM741 -7c-68 0 -111 35 -125 83c-2 6 0 10 6 12l25 7c6 2 9 0 12 -6c12 -28 38 -53 81 -53c48 0 79 32 79 76
s-32 77 -81 77h-18c-6 0 -10 4 -10 10v23c0 6 4 10 10 10h15c45 0 75 27 75 70c0 40 -27 68 -73 68c-43 0 -63 -22 -73 -47c-2 -6 -5 -9 -11 -8l-23 6c-6 1 -9 5 -8 11c10 42 48 81 116 81c73 0 118 -46 118 -109c0 -43 -24 -72 -52 -90v-1c27 -11 61 -44 61 -100
c0 -70 -50 -120 -124 -120z" />
    <glyph glyph-name="threequarters" unicode="&#xbe;" horiz-adv-x="897" 
d="M737 0h-25c-6 0 -10 4 -10 10v60c0 4 -2 6 -6 6h-161c-6 0 -10 4 -10 10v22c0 7 1 10 4 16l133 272c3 7 7 10 13 10h29c6 0 9 -5 6 -10l-133 -276v-1h119c4 0 6 2 6 6v98c0 6 4 10 10 10h25c6 0 10 -4 10 -10v-98c0 -4 2 -6 6 -6h36c6 0 10 -4 10 -10v-23
c0 -6 -4 -10 -10 -10h-36c-4 0 -6 -2 -6 -6v-60c0 -6 -4 -10 -10 -10zM281 -10h-27c-6 0 -9 4 -6 10l394 680c4 7 7 10 14 10h27c6 0 9 -4 6 -10l-394 -680c-4 -7 -7 -10 -14 -10zM223 267c-68 0 -111 35 -125 83c-2 6 0 10 6 12l25 7c6 2 9 0 12 -6c12 -28 38 -53 81 -53
c48 0 79 32 79 76s-32 77 -81 77h-18c-6 0 -10 4 -10 10v23c0 6 4 10 10 10h15c45 0 75 27 75 70c0 40 -27 68 -73 68c-43 0 -63 -22 -73 -47c-2 -6 -5 -9 -11 -8l-23 6c-6 1 -9 5 -8 11c10 42 48 81 116 81c73 0 118 -46 118 -109c0 -43 -24 -72 -52 -90v-1
c27 -11 61 -44 61 -100c0 -70 -50 -120 -124 -120z" />
    <glyph glyph-name="threeeighths" unicode="&#x215c;" horiz-adv-x="938" 
d="M711 -7c-76 0 -130 48 -130 120c0 50 29 85 62 100v2c-28 15 -52 45 -52 86c0 63 49 112 120 112c70 0 119 -49 119 -112c0 -41 -24 -71 -52 -86v-2c34 -15 63 -50 63 -100c0 -72 -54 -120 -130 -120zM711 233c41 0 73 29 73 68c0 40 -32 69 -73 69s-74 -29 -74 -69
c0 -39 33 -68 74 -68zM711 36c49 0 84 32 84 78s-35 78 -84 78s-84 -32 -84 -78s35 -78 84 -78zM281 -10h-27c-6 0 -9 4 -6 10l394 680c4 7 7 10 14 10h27c6 0 9 -4 6 -10l-394 -680c-4 -7 -7 -10 -14 -10zM223 267c-68 0 -111 35 -125 83c-2 6 0 10 6 12l25 7
c6 2 9 0 12 -6c12 -28 38 -53 81 -53c48 0 79 32 79 76s-32 77 -81 77h-18c-6 0 -10 4 -10 10v23c0 6 4 10 10 10h15c45 0 75 27 75 70c0 40 -27 68 -73 68c-43 0 -63 -22 -73 -47c-2 -6 -5 -9 -11 -8l-23 6c-6 1 -9 5 -8 11c10 42 48 81 116 81c73 0 118 -46 118 -109
c0 -43 -24 -72 -52 -90v-1c27 -11 61 -44 61 -100c0 -70 -50 -120 -124 -120z" />
    <glyph glyph-name="fiveeighths" unicode="&#x215d;" horiz-adv-x="930" 
d="M703 -7c-76 0 -130 48 -130 120c0 50 29 85 62 100v2c-28 15 -52 45 -52 86c0 63 49 112 120 112c70 0 119 -49 119 -112c0 -41 -24 -71 -52 -86v-2c34 -15 63 -50 63 -100c0 -72 -54 -120 -130 -120zM703 233c41 0 73 29 73 68c0 40 -32 69 -73 69s-74 -29 -74 -69
c0 -39 33 -68 74 -68zM703 36c49 0 84 32 84 78s-35 78 -84 78s-84 -32 -84 -78s35 -78 84 -78zM273 -10h-27c-6 0 -9 4 -6 10l394 680c4 7 7 10 14 10h27c6 0 9 -4 6 -10l-394 -680c-4 -7 -7 -10 -14 -10zM215 267c-69 0 -106 36 -117 80c-2 6 0 11 6 13l24 9
c6 2 10 0 12 -5c12 -32 32 -53 76 -53c35 0 59 15 68 45c3 10 5 21 5 49c0 27 -1 38 -5 49c-9 28 -32 44 -67 44c-36 0 -56 -16 -65 -37c-3 -5 -6 -9 -12 -9h-26c-6 0 -10 4 -10 10v208c0 6 4 10 10 10h204c6 0 10 -4 10 -10v-23c0 -6 -4 -10 -10 -10h-163c-4 0 -6 -2 -6 -6
v-120h1c11 15 35 30 74 30c53 0 89 -22 104 -68c5 -15 7 -33 7 -68c0 -34 -3 -51 -8 -66c-16 -47 -55 -72 -112 -72z" />
    <glyph glyph-name="seveneighths" unicode="&#x215e;" horiz-adv-x="856" 
d="M629 -7c-76 0 -130 48 -130 120c0 50 29 85 62 100v2c-28 15 -52 45 -52 86c0 63 49 112 120 112c70 0 119 -49 119 -112c0 -41 -24 -71 -52 -86v-2c34 -15 63 -50 63 -100c0 -72 -54 -120 -130 -120zM629 233c41 0 73 29 73 68c0 40 -32 69 -73 69s-74 -29 -74 -69
c0 -39 33 -68 74 -68zM629 36c49 0 84 32 84 78s-35 78 -84 78s-84 -32 -84 -78s35 -78 84 -78zM173 274h-28c-6 0 -9 5 -6 11l149 351v1h-140c-4 0 -6 -2 -6 -6v-42c0 -6 -4 -10 -10 -10h-26c-6 0 -10 4 -10 10v81c0 6 4 10 10 10h221c6 0 10 -4 10 -10v-28
c0 -6 -1 -9 -3 -13l-148 -347c-3 -6 -6 -8 -13 -8zM199 -10h-27c-6 0 -9 4 -6 10l394 680c4 7 7 10 14 10h27c6 0 9 -4 6 -10l-394 -680c-4 -7 -7 -10 -14 -10z" />
    <glyph glyph-name="perthousand" unicode="&#x2030;" horiz-adv-x="1073" 
d="M197 -10h-27c-6 0 -9 4 -6 10l394 680c4 7 7 10 14 10h27c6 0 9 -4 6 -10l-394 -680c-4 -7 -7 -10 -14 -10zM205 330c-55 0 -94 28 -109 74c-4 16 -8 31 -8 105s4 89 8 105c15 46 54 74 109 74c54 0 93 -28 108 -74c4 -16 8 -31 8 -105s-4 -89 -8 -105
c-15 -46 -54 -74 -108 -74zM205 371c32 0 55 14 64 43c5 13 7 24 7 95s-2 82 -7 95c-9 29 -32 43 -64 43c-33 0 -56 -14 -65 -43c-5 -13 -7 -24 -7 -95s2 -82 7 -95c9 -29 32 -43 65 -43zM869 -8c-54 0 -93 28 -108 74c-5 15 -8 30 -8 105c0 74 3 89 8 105
c15 46 54 74 108 74s94 -28 108 -74c5 -16 8 -31 8 -105c0 -75 -3 -90 -8 -105c-14 -46 -54 -74 -108 -74zM566 -8c-54 0 -93 28 -108 74c-5 15 -8 30 -8 105c0 74 3 89 8 105c15 46 54 74 108 74s94 -28 108 -74c5 -16 8 -31 8 -105c0 -75 -3 -90 -8 -105
c-14 -46 -54 -74 -108 -74zM869 33c32 0 55 14 65 43c4 13 7 23 7 95c0 71 -3 82 -7 94c-10 29 -33 43 -65 43s-55 -14 -65 -43c-4 -12 -7 -23 -7 -94c0 -72 3 -82 7 -95c10 -29 33 -43 65 -43zM566 33c32 0 55 14 65 43c4 13 7 23 7 95c0 71 -3 82 -7 94
c-10 29 -33 43 -65 43s-55 -14 -65 -43c-4 -12 -7 -23 -7 -94c0 -72 3 -82 7 -95c10 -29 33 -43 65 -43z" />
    <glyph glyph-name="minus" unicode="&#x2212;" 
d="M456 251h-380c-6 0 -10 4 -10 10v30c0 6 4 10 10 10h380c6 0 10 -4 10 -10v-30c0 -6 -4 -10 -10 -10z" />
    <glyph glyph-name="plusminus" unicode="&#xb1;" 
d="M282 108h-32c-6 0 -10 4 -10 10v160c0 4 -2 6 -6 6h-158c-6 0 -10 4 -10 10v30c0 6 4 10 10 10h158c4 0 6 2 6 6v160c0 6 4 10 10 10h32c6 0 10 -4 10 -10v-160c0 -4 2 -6 6 -6h158c6 0 10 -4 10 -10v-30c0 -6 -4 -10 -10 -10h-158c-4 0 -6 -2 -6 -6v-160
c0 -6 -4 -10 -10 -10zM456 0h-380c-6 0 -10 4 -10 10v30c0 6 4 10 10 10h380c6 0 10 -4 10 -10v-30c0 -6 -4 -10 -10 -10z" />
    <glyph glyph-name="multiply" unicode="&#xd7;" 
d="M432 131l-20 -22c-4 -4 -10 -4 -14 0l-127 127c-3 3 -5 3 -8 0l-128 -127c-4 -4 -10 -4 -14 0l-20 22c-4 4 -4 10 0 14l127 127c3 3 3 5 0 8l-127 127c-4 4 -4 10 0 14l20 22c4 4 10 4 14 0l128 -127c3 -3 5 -3 8 0l127 127c4 4 10 4 14 0l20 -22c4 -4 4 -10 0 -14
l-127 -127c-3 -3 -3 -5 0 -8l127 -127c4 -4 4 -10 0 -14z" />
    <glyph glyph-name="divide" unicode="&#xf7;" 
d="M223 423c0 24 19 43 43 43s43 -19 43 -43s-19 -43 -43 -43s-43 19 -43 43zM456 251h-380c-6 0 -10 4 -10 10v30c0 6 4 10 10 10h380c6 0 10 -4 10 -10v-30c0 -6 -4 -10 -10 -10zM223 129c0 24 19 43 43 43s43 -19 43 -43s-19 -43 -43 -43s-43 19 -43 43z" />
    <glyph glyph-name="notequal" unicode="&#x2260;" 
d="M456 154h-234l-57 -102c-4 -7 -8 -10 -15 -10h-29c-6 0 -8 6 -5 11l56 101h-96c-6 0 -10 4 -10 10v30c0 6 4 10 10 10h124l81 144h-205c-6 0 -10 4 -10 10v30c0 6 4 10 10 10h233l58 102c4 7 8 10 14 10h30c6 0 8 -6 5 -11l-57 -101h97c6 0 10 -4 10 -10v-30
c0 -6 -4 -10 -10 -10h-125l-81 -144h206c6 0 10 -4 10 -10v-30c0 -6 -4 -10 -10 -10z" />
    <glyph glyph-name="approxequal" unicode="&#x2248;" 
d="M351 312c-41 0 -71 20 -98 39c-23 16 -47 32 -74 32c-35 0 -57 -17 -81 -57c-3 -5 -8 -6 -14 -2l-20 13c-6 4 -6 7 -3 14c25 49 69 79 119 79c42 0 71 -20 98 -39c23 -16 47 -32 74 -32c35 0 57 18 81 57c3 5 9 6 15 2l19 -12c6 -4 7 -7 3 -14c-25 -49 -68 -80 -119 -80z
M351 122c-41 0 -71 20 -98 39c-23 16 -47 32 -74 32c-35 0 -57 -17 -81 -57c-3 -5 -8 -6 -14 -2l-20 13c-6 4 -6 7 -3 14c25 49 69 79 119 79c42 0 71 -20 98 -39c23 -16 47 -32 74 -32c35 0 57 18 81 57c3 5 9 6 15 2l19 -12c6 -4 7 -7 3 -14c-25 -49 -68 -80 -119 -80z
" />
    <glyph glyph-name="lessequal" unicode="&#x2264;" 
d="M456 128l-380 155c-8 3 -10 6 -10 13v26c0 7 2 10 10 13l380 155c6 2 10 -1 10 -7v-34c0 -7 -3 -10 -10 -13l-316 -126v-2l316 -125c7 -3 10 -6 10 -13v-35c0 -6 -4 -9 -10 -7zM456 0h-380c-6 0 -10 4 -10 10v30c0 6 4 10 10 10h380c6 0 10 -4 10 -10v-30
c0 -6 -4 -10 -10 -10z" />
    <glyph glyph-name="greaterequal" unicode="&#x2265;" 
d="M456 283l-380 -155c-6 -2 -10 1 -10 7v35c0 7 3 10 10 13l316 125v2l-316 126c-7 3 -10 6 -10 13v34c0 6 4 9 10 7l380 -155c8 -3 10 -6 10 -13v-26c0 -7 -2 -10 -10 -13zM456 0h-380c-6 0 -10 4 -10 10v30c0 6 4 10 10 10h380c6 0 10 -4 10 -10v-30c0 -6 -4 -10 -10 -10
z" />
    <glyph glyph-name="logicalnot" unicode="&#xac;" 
d="M456 117h-32c-6 0 -10 4 -10 10v118c0 4 -2 6 -6 6h-332c-6 0 -10 4 -10 10v30c0 6 4 10 10 10h380c6 0 10 -4 10 -10v-164c0 -6 -4 -10 -10 -10z" />
    <glyph glyph-name="Delta" unicode="&#x394;" horiz-adv-x="596" 
d="M557 0h-518c-7 0 -10 4 -8 10l238 660c2 6 6 10 12 10h36c6 0 9 -4 11 -10l237 -660c2 -6 -1 -10 -8 -10zM485 51c4 0 6 2 5 6l-190 531h-3l-192 -531c-1 -4 1 -6 6 -6h374z" />
    <glyph glyph-name="Delta" unicode="&#x2206;" horiz-adv-x="596" 
d="M557 0h-518c-7 0 -10 4 -8 10l238 660c2 6 6 10 12 10h36c6 0 9 -4 11 -10l237 -660c2 -6 -1 -10 -8 -10zM485 51c4 0 6 2 5 6l-190 531h-3l-192 -531c-1 -4 1 -6 6 -6h374z" />
    <glyph glyph-name="uni0394" horiz-adv-x="596" 
d="M557 0h-518c-7 0 -10 4 -8 10l238 660c2 6 6 10 12 10h36c6 0 9 -4 11 -10l237 -660c2 -6 -1 -10 -8 -10zM485 51c4 0 6 2 5 6l-190 531h-3l-192 -531c-1 -4 1 -6 6 -6h374z" />
    <glyph glyph-name="Omega" unicode="&#x3a9;" horiz-adv-x="612" 
d="M529 0h-174c-6 0 -10 4 -10 10v36c0 7 4 10 10 12c105 38 134 98 134 282c0 113 -9 154 -18 181c-25 75 -81 115 -165 115s-140 -40 -165 -115c-9 -27 -18 -68 -18 -181c0 -184 29 -244 134 -282c6 -2 10 -5 10 -12v-36c0 -6 -4 -10 -10 -10h-174c-6 0 -10 4 -10 10v34
c0 6 4 10 10 10h87v2c-76 42 -105 107 -105 284c0 118 9 162 20 196c33 103 111 154 221 154s188 -51 221 -154c11 -34 20 -78 20 -196c0 -177 -30 -242 -105 -284v-2h87c6 0 10 -4 10 -10v-34c0 -6 -4 -10 -10 -10z" />
    <glyph glyph-name="Omega" unicode="&#x2126;" horiz-adv-x="612" 
d="M529 0h-174c-6 0 -10 4 -10 10v36c0 7 4 10 10 12c105 38 134 98 134 282c0 113 -9 154 -18 181c-25 75 -81 115 -165 115s-140 -40 -165 -115c-9 -27 -18 -68 -18 -181c0 -184 29 -244 134 -282c6 -2 10 -5 10 -12v-36c0 -6 -4 -10 -10 -10h-174c-6 0 -10 4 -10 10v34
c0 6 4 10 10 10h87v2c-76 42 -105 107 -105 284c0 118 9 162 20 196c33 103 111 154 221 154s188 -51 221 -154c11 -34 20 -78 20 -196c0 -177 -30 -242 -105 -284v-2h87c6 0 10 -4 10 -10v-34c0 -6 -4 -10 -10 -10z" />
    <glyph glyph-name="uni03A9" horiz-adv-x="612" 
d="M529 0h-174c-6 0 -10 4 -10 10v36c0 7 4 10 10 12c105 38 134 98 134 282c0 113 -9 154 -18 181c-25 75 -81 115 -165 115s-140 -40 -165 -115c-9 -27 -18 -68 -18 -181c0 -184 29 -244 134 -282c6 -2 10 -5 10 -12v-36c0 -6 -4 -10 -10 -10h-174c-6 0 -10 4 -10 10v34
c0 6 4 10 10 10h87v2c-76 42 -105 107 -105 284c0 118 9 162 20 196c33 103 111 154 221 154s188 -51 221 -154c11 -34 20 -78 20 -196c0 -177 -30 -242 -105 -284v-2h87c6 0 10 -4 10 -10v-34c0 -6 -4 -10 -10 -10z" />
    <glyph glyph-name="mu" unicode="&#xb5;" horiz-adv-x="544" 
d="M442 0h-35c-6 0 -10 4 -10 10v57h-1c-21 -47 -71 -77 -134 -77c-53 0 -91 15 -114 51h-2v-211c0 -6 -4 -10 -10 -10h-34c-6 0 -10 4 -10 10v637c0 6 4 10 10 10h34c6 0 10 -4 10 -10v-292c0 -86 42 -133 123 -133c73 0 128 49 128 133v292c0 6 4 10 10 10h35
c6 0 10 -4 10 -10v-457c0 -6 -4 -10 -10 -10z" />
    <glyph glyph-name="mu" unicode="&#x3bc;" horiz-adv-x="544" 
d="M442 0h-35c-6 0 -10 4 -10 10v57h-1c-21 -47 -71 -77 -134 -77c-53 0 -91 15 -114 51h-2v-211c0 -6 -4 -10 -10 -10h-34c-6 0 -10 4 -10 10v637c0 6 4 10 10 10h34c6 0 10 -4 10 -10v-292c0 -86 42 -133 123 -133c73 0 128 49 128 133v292c0 6 4 10 10 10h35
c6 0 10 -4 10 -10v-457c0 -6 -4 -10 -10 -10z" />
    <glyph glyph-name="uni03BC" horiz-adv-x="544" 
d="M442 0h-35c-6 0 -10 4 -10 10v57h-1c-21 -47 -71 -77 -134 -77c-53 0 -91 15 -114 51h-2v-211c0 -6 -4 -10 -10 -10h-34c-6 0 -10 4 -10 10v637c0 6 4 10 10 10h34c6 0 10 -4 10 -10v-292c0 -86 42 -133 123 -133c73 0 128 49 128 133v292c0 6 4 10 10 10h35
c6 0 10 -4 10 -10v-457c0 -6 -4 -10 -10 -10z" />
    <glyph glyph-name="pi" unicode="&#x3c0;" horiz-adv-x="561" 
d="M484 -6h-11c-55 0 -76 27 -76 84v341c0 4 -2 6 -6 6h-222c-4 0 -6 -2 -6 -6v-409c0 -6 -4 -10 -10 -10h-35c-6 0 -10 4 -10 10v409c0 4 -3 6 -7 6h-37c-6 0 -10 4 -10 10v32c0 6 4 10 10 10h432c6 0 10 -4 10 -10v-32c0 -6 -4 -10 -10 -10h-38c-4 0 -6 -2 -6 -6v-340
c0 -24 8 -33 26 -33h6c6 0 10 -4 10 -10v-32c0 -6 -4 -10 -10 -10z" />
    <glyph glyph-name="degree" unicode="&#xb0;" horiz-adv-x="448" 
d="M223 401c-81 0 -142 61 -142 143s61 143 142 143c82 0 143 -61 143 -143s-61 -143 -143 -143zM223 439c59 0 102 45 102 105c0 59 -42 105 -102 105s-101 -46 -101 -105c0 -60 42 -105 101 -105z" />
    <glyph glyph-name="afii61289" unicode="&#x2113;" horiz-adv-x="371" 
d="M83 211c-5 -3 -10 -3 -14 2l-16 23c-4 5 -3 10 1 14l62 53v211c0 122 37 176 105 176c56 0 94 -44 94 -125c0 -92 -38 -176 -145 -285v-177c0 -42 18 -61 48 -61c23 0 42 10 61 29c5 5 10 4 14 -1l15 -21c4 -5 3 -10 -1 -14c-26 -28 -60 -45 -97 -45
c-65 0 -94 41 -94 114v135zM170 517v-168c70 80 96 142 96 216c0 48 -18 77 -45 77c-29 0 -51 -26 -51 -125z" />
    <glyph glyph-name="estimated" unicode="&#x212e;" horiz-adv-x="643" 
d="M320 -10c-140 0 -231 111 -231 249c0 139 91 248 231 248s233 -102 234 -248h-363v-164c34 -33 78 -51 129 -51c75 0 129 32 173 108l33 -21c-56 -84 -111 -121 -206 -121zM452 272v130c-38 36 -81 55 -132 55s-95 -19 -129 -55v-130h261z" />
    <glyph glyph-name="eng" unicode="&#x14b;" horiz-adv-x="541" 
d="M331 -180h-11c-6 0 -10 4 -10 10v32c0 6 4 10 10 10h10c53 0 71 14 71 73v347c0 95 -42 143 -125 143c-73 0 -130 -50 -130 -133v-292c0 -6 -4 -10 -10 -10h-34c-6 0 -10 4 -10 10v457c0 6 4 10 10 10h34c6 0 10 -4 10 -10v-57h1c24 47 74 77 141 77
c106 0 167 -66 167 -182v-359c0 -93 -36 -126 -124 -126z" />
    <glyph glyph-name="Eng" unicode="&#x14a;" horiz-adv-x="651" 
d="M411 -180h-14c-6 0 -10 4 -10 10v35c0 6 4 10 10 10h12c62 0 93 25 93 92v25l-347 578h-4v-560c0 -6 -4 -10 -10 -10h-37c-6 0 -10 4 -10 10v660c0 6 4 10 10 10h37c6 0 13 -1 17 -10l339 -558h3v558c0 6 4 10 10 10h37c6 0 10 -4 10 -10v-698c0 -107 -48 -152 -146 -152
z" />
    <glyph glyph-name="infinity" unicode="&#x221e;" horiz-adv-x="769" 
d="M570 89c-66 0 -120 39 -186 121c-65 -80 -119 -121 -186 -121c-87 0 -151 64 -151 158c0 93 61 157 152 157c65 0 118 -41 185 -121c70 85 123 121 185 121c89 0 153 -61 153 -157c0 -92 -63 -158 -152 -158zM568 134c68 0 109 55 109 114c0 62 -39 112 -109 112
c-49 0 -90 -33 -155 -114c69 -84 105 -112 155 -112zM200 134c50 0 92 34 155 113c-65 81 -106 113 -155 113c-69 0 -108 -49 -108 -112c0 -65 45 -114 108 -114z" />
    <glyph glyph-name="partialdiff" unicode="&#x2202;" horiz-adv-x="537" 
d="M250 -10c-117 0 -190 89 -190 212c0 122 81 212 195 212c70 0 126 -28 169 -86h1c4 171 -52 312 -178 312c-43 0 -79 -16 -117 -45c-5 -3 -10 -2 -13 3l-16 25c-3 5 -2 10 3 14c38 30 88 53 144 53c159 0 229 -155 229 -340c0 -225 -76 -360 -227 -360zM254 42
c101 0 156 85 167 231c-40 60 -96 92 -157 92c-94 0 -150 -63 -150 -163c0 -95 54 -160 140 -160z" />
    <glyph glyph-name="integral" unicode="&#x222b;" horiz-adv-x="382" 
d="M94 -180c-7 0 -23 0 -31 2c-6 1 -10 4 -10 10v31c0 7 4 11 10 10c9 -1 18 -1 25 -1c51 0 76 31 76 113v577c0 127 39 177 125 179c6 0 22 -1 30 -2c6 -1 10 -4 10 -10v-32c0 -6 -4 -11 -10 -10c-9 2 -18 2 -25 2c-51 0 -76 -32 -76 -113v-577c0 -127 -39 -177 -124 -179z
" />
    <glyph glyph-name="radical" unicode="&#x221a;" horiz-adv-x="616" 
d="M333 -180h-29c-6 0 -10 4 -12 10l-147 299c-2 4 -5 5 -9 3l-72 -34c-6 -3 -11 -1 -13 4l-12 26c-3 6 -1 11 4 13l115 57c6 3 11 2 14 -4l140 -291h3l231 827c2 6 6 10 12 10h30c6 0 10 -4 8 -10l-251 -900c-2 -6 -6 -10 -12 -10z" />
    <glyph glyph-name="summation" unicode="&#x2211;" horiz-adv-x="531" 
d="M474 -180h-403c-6 0 -10 4 -10 10v31c0 4 1 7 2 9l195 452l-190 362c-2 4 -3 7 -3 11v35c0 6 4 10 10 10h389c6 0 10 -4 10 -10v-35c0 -6 -4 -10 -10 -10h-333l186 -352c2 -5 2 -9 0 -14l-192 -444h349c6 0 10 -4 10 -10v-35c0 -6 -4 -10 -10 -10z" />
    <glyph glyph-name="product" unicode="&#x220f;" horiz-adv-x="637" 
d="M538 -180h-37c-6 0 -10 4 -10 10v849c0 4 -2 6 -6 6h-333c-4 0 -6 -2 -6 -6v-849c0 -6 -4 -10 -10 -10h-37c-6 0 -10 4 -10 10v900c0 6 4 10 10 10h439c6 0 10 -4 10 -10v-900c0 -6 -4 -10 -10 -10z" />
    <glyph glyph-name="lozenge" unicode="&#x25ca;" horiz-adv-x="556" 
d="M294 -52h-32c-6 0 -9 4 -12 10l-179 364c-2 5 -2 9 0 14l179 364c3 6 6 10 12 10h32c6 0 9 -4 12 -10l179 -364c2 -5 2 -9 0 -14l-179 -364c-3 -6 -6 -10 -12 -10zM280 16l152 313l-153 313h-2l-152 -313l153 -313h2z" />
    <glyph glyph-name="uniF8FF" unicode="&#xf8ff;" horiz-adv-x="470" 
d="M460 0h-450c-6 0 -10 4 -10 10v660c0 6 4 10 10 10h450c6 0 10 -4 10 -10v-660c0 -6 -4 -10 -10 -10zM425 37c4 0 6 2 6 6v594c0 4 -2 6 -6 6h-380c-4 0 -6 -2 -6 -6v-594c0 -4 2 -6 6 -6h380zM237 224h-22c-6 0 -10 4 -10 10v24c0 30 6 47 22 67l37 48
c30 36 37 53 37 80c0 42 -30 70 -72 70c-40 0 -67 -22 -77 -67c-1 -6 -5 -9 -12 -8l-21 4c-6 1 -9 5 -8 11c11 58 55 99 119 99c68 0 112 -48 112 -109c0 -38 -11 -62 -38 -94l-37 -48c-17 -21 -20 -31 -20 -55v-22c0 -6 -4 -10 -10 -10zM241 113h-31c-6 0 -10 4 -10 10v39
c0 6 4 10 10 10h31c6 0 10 -4 10 -10v-39c0 -6 -4 -10 -10 -10z" />
    <glyph glyph-name="exclam.sc" horiz-adv-x="260" 
d="M142 177h-23c-6 0 -10 4 -10 10l-8 320c0 6 4 10 10 10h40c6 0 10 -4 10 -10l-9 -320c0 -6 -4 -10 -10 -10zM155 0h-50c-6 0 -10 4 -10 10v67c0 6 4 10 10 10h50c6 0 10 -4 10 -10v-67c0 -6 -4 -10 -10 -10z" />
    <glyph glyph-name="dollar.sc" horiz-adv-x="446" 
d="M234 -54h-16c-6 0 -10 4 -10 10v36c-67 2 -124 23 -164 48c-4 3 -5 10 -1 14l20 27c4 5 8 5 14 1c32 -20 75 -39 131 -41v196l-5 1c-102 12 -151 67 -151 142c0 87 64 140 156 144v37c0 6 4 10 10 10h16c6 0 10 -4 10 -10v-37c50 -3 93 -18 124 -37c5 -3 7 -8 3 -14
l-16 -25c-4 -5 -9 -6 -14 -3c-30 16 -61 26 -97 29v-189c110 -13 162 -65 162 -142c0 -82 -57 -141 -162 -150v-37c0 -6 -4 -10 -10 -10zM104 385c0 -48 24 -83 104 -96v186c-63 -3 -104 -36 -104 -90zM354 139c0 46 -25 81 -110 94v-191c69 6 110 41 110 97z" />
    <glyph glyph-name="percent.sc" horiz-adv-x="636" 
d="M163 -10h-26c-7 0 -9 5 -6 10l329 517c4 7 8 10 16 10h26c6 0 8 -5 5 -10l-329 -517c-4 -7 -8 -10 -15 -10zM162 252c-46 0 -80 24 -94 62c-4 15 -7 32 -7 73c0 42 3 59 7 73c14 39 48 63 94 63s80 -24 93 -63c5 -14 8 -31 8 -73c0 -41 -3 -58 -8 -73
c-13 -38 -47 -62 -93 -62zM162 292c27 0 45 14 52 36c3 10 6 22 6 59s-3 50 -6 60c-7 22 -25 36 -52 36s-45 -14 -52 -36c-4 -10 -6 -23 -6 -60s2 -49 6 -59c7 -22 25 -36 52 -36zM477 -6c-46 0 -80 24 -94 62c-4 15 -7 32 -7 73c0 42 3 59 7 73c14 39 48 63 94 63
s80 -24 93 -63c5 -14 8 -31 8 -73c0 -41 -3 -58 -8 -73c-13 -38 -47 -62 -93 -62zM477 34c27 0 45 14 52 36c3 10 6 22 6 59s-3 50 -6 60c-7 22 -25 36 -52 36s-45 -14 -52 -36c-3 -10 -6 -23 -6 -60s3 -49 6 -59c7 -22 25 -36 52 -36z" />
    <glyph glyph-name="ampersand.sc" horiz-adv-x="577" 
d="M484 -5h-18c-31 0 -45 8 -67 35l-32 38c-52 -55 -99 -78 -154 -78c-86 0 -136 56 -136 131c0 58 28 103 108 168c-60 73 -71 96 -71 131c0 61 49 107 119 107c73 0 117 -51 117 -109c0 -41 -21 -74 -97 -135l116 -139l57 70c4 5 9 6 15 2l20 -17c5 -3 6 -9 2 -14l-63 -78
l38 -45c10 -13 20 -17 33 -17h13c6 0 10 -4 10 -10v-30c0 -6 -4 -10 -10 -10zM166 420c0 -23 9 -41 57 -101c66 52 77 73 77 99c0 34 -25 61 -67 61c-43 0 -67 -25 -67 -59zM216 39c42 0 75 18 120 67l-121 146c-71 -56 -87 -88 -87 -128c0 -48 32 -85 88 -85z" />
    <glyph glyph-name="zero.sc" horiz-adv-x="446" 
d="M223 -10c-76 0 -132 42 -152 104c-9 27 -12 48 -12 164c0 117 3 138 12 165c20 62 76 104 152 104s131 -42 152 -104c9 -27 12 -48 12 -165c0 -116 -3 -137 -12 -164c-21 -62 -76 -104 -152 -104zM223 40c51 0 88 29 100 68c7 20 10 43 10 150s-3 131 -10 150
c-12 40 -49 68 -100 68s-88 -28 -101 -68c-6 -19 -9 -43 -9 -150s3 -130 9 -150c13 -39 50 -68 101 -68z" />
    <glyph glyph-name="one.sc" horiz-adv-x="446" 
d="M273 0h-34c-6 0 -10 4 -10 10v442h-2l-102 -65c-5 -3 -11 -1 -11 7v35c0 7 2 12 7 15l104 68c6 4 9 5 16 5h32c6 0 10 -4 10 -10v-497c0 -6 -4 -10 -10 -10z" />
    <glyph glyph-name="two.sc" horiz-adv-x="446" 
d="M371 0h-293c-6 0 -10 4 -10 10v26c0 5 1 8 4 12l208 229c34 37 47 63 47 102c0 57 -40 97 -103 97c-58 0 -96 -35 -105 -85c-1 -5 -6 -9 -13 -7l-30 7c-6 2 -9 6 -8 12c9 62 64 124 157 124c96 0 156 -66 156 -146c0 -53 -18 -89 -60 -135l-181 -194v-1h231
c6 0 10 -4 10 -10v-31c0 -6 -4 -10 -10 -10z" />
    <glyph glyph-name="three.sc" horiz-adv-x="446" 
d="M223 -12c-93 0 -150 52 -164 112c-1 6 2 10 8 12l30 8c7 2 11 -1 13 -7c14 -39 47 -74 113 -74c68 0 111 43 111 102s-44 102 -115 102h-24c-6 0 -10 4 -10 10v30c0 6 4 10 10 10h22c64 0 105 37 105 92c0 51 -37 91 -103 91c-58 0 -91 -29 -102 -71c-1 -5 -6 -8 -13 -7
l-30 9c-6 1 -9 5 -8 11c14 61 68 109 154 109c97 0 156 -61 156 -141c0 -53 -32 -92 -73 -112v-2c40 -14 85 -59 85 -130c0 -90 -67 -154 -165 -154z" />
    <glyph glyph-name="four.sc" horiz-adv-x="446" 
d="M325 0h-34c-6 0 -10 4 -10 10v81c0 4 -2 6 -6 6h-222c-6 0 -10 4 -10 10v25c0 7 2 11 5 18l185 359c3 6 7 8 14 8h35c7 0 9 -4 7 -9l-184 -359v-1h170c4 0 6 2 6 6v133c0 6 4 10 10 10h34c6 0 10 -4 10 -10v-133c0 -4 2 -6 6 -6h58c6 0 10 -4 10 -10v-31
c0 -6 -4 -10 -10 -10h-58c-4 0 -6 -2 -6 -6v-81c0 -6 -4 -10 -10 -10z" />
    <glyph glyph-name="five.sc" horiz-adv-x="446" 
d="M230 -10c-89 0 -141 49 -156 108c-1 6 1 11 7 12l31 8c7 2 11 -1 13 -7c13 -41 44 -71 105 -71c50 0 85 22 98 62c5 15 8 31 8 63c0 33 -3 49 -7 63c-14 40 -44 63 -96 63c-54 0 -86 -27 -98 -56c-3 -6 -5 -10 -11 -10h-32c-6 0 -10 4 -10 10v272c0 6 4 10 10 10h276
c6 0 10 -4 10 -10v-31c0 -6 -4 -10 -10 -10h-229c-4 0 -6 -2 -6 -6v-161h2c15 20 49 42 102 42c81 0 124 -35 143 -93c7 -22 10 -42 10 -83c0 -36 -3 -57 -10 -79c-20 -61 -75 -96 -150 -96z" />
    <glyph glyph-name="six.sc" horiz-adv-x="446" 
d="M223 -10c-97 0 -170 63 -170 160c0 42 15 83 37 120l142 237c3 7 7 10 14 10h36c7 0 9 -5 6 -10l-127 -213l2 -1c14 9 37 16 68 16c92 0 162 -62 162 -159s-74 -160 -170 -160zM223 40c68 0 115 47 115 109c0 63 -47 109 -115 109s-116 -46 -116 -109
c0 -62 48 -109 116 -109z" />
    <glyph glyph-name="seven.sc" horiz-adv-x="446" 
d="M167 0h-36c-6 0 -8 4 -5 10l204 453v3h-201c-4 0 -6 -2 -6 -6v-64c0 -6 -4 -10 -10 -10h-31c-6 0 -10 4 -10 10v111c0 6 4 10 10 10h295c6 0 10 -4 10 -10v-36c0 -4 -1 -7 -3 -11l-203 -450c-4 -8 -6 -10 -14 -10z" />
    <glyph glyph-name="eight.sc" horiz-adv-x="446" 
d="M223 -10c-102 0 -170 64 -170 152c0 61 34 107 84 128v2c-43 19 -71 61 -71 114c0 76 60 141 157 141s157 -65 157 -141c0 -53 -28 -95 -71 -114v-2c50 -21 84 -67 84 -128c0 -88 -68 -152 -170 -152zM223 296c63 0 103 39 103 90s-40 90 -103 90s-103 -39 -103 -90
s40 -90 103 -90zM223 40c70 0 115 45 115 103s-45 103 -115 103s-116 -45 -116 -103s46 -103 116 -103z" />
    <glyph glyph-name="nine.sc" horiz-adv-x="446" 
d="M200 0h-36c-7 0 -9 5 -6 10l126 213l-1 1c-14 -9 -38 -16 -68 -16c-93 0 -162 62 -162 158c0 98 74 161 170 161s170 -64 170 -161c0 -41 -15 -83 -37 -119l-142 -238c-3 -6 -7 -9 -14 -9zM223 258c68 0 115 47 115 109c0 63 -47 109 -115 109s-116 -46 -116 -109
c0 -62 48 -109 116 -109z" />
    <glyph glyph-name="question.sc" horiz-adv-x="399" 
d="M215 144h-35c-6 0 -10 4 -10 10v26c0 31 7 48 29 72l44 48c35 38 47 58 47 94c0 48 -36 81 -90 81c-53 0 -84 -29 -95 -78c-1 -6 -5 -9 -12 -8l-33 5c-6 1 -9 6 -8 12c12 68 62 121 150 121c86 0 143 -56 143 -130c0 -48 -16 -77 -51 -115l-42 -46
c-22 -23 -27 -35 -27 -63v-19c0 -6 -4 -10 -10 -10zM222 0h-50c-6 0 -10 4 -10 10v67c0 6 4 10 10 10h50c6 0 10 -4 10 -10v-67c0 -6 -4 -10 -10 -10z" />
    <glyph glyph-name="a.sc" horiz-adv-x="513" 
d="M474 0h-36c-6 0 -10 3 -13 10l-46 118h-245l-47 -118c-3 -7 -6 -10 -12 -10h-36c-6 0 -9 4 -7 10l196 497c2 6 6 10 12 10h35c6 0 10 -4 12 -10l194 -497c2 -6 -1 -10 -7 -10zM257 438l-103 -259h205l-100 259h-2z" />
    <glyph glyph-name="b.sc" 
d="M295 0h-192c-6 0 -10 4 -10 10v497c0 6 4 10 10 10h196c105 0 163 -54 163 -135c0 -61 -34 -99 -85 -115v-2c41 -8 94 -47 94 -122c0 -90 -62 -143 -176 -143zM297 288c72 0 110 36 110 89c0 55 -38 89 -110 89h-144c-4 0 -6 -2 -6 -6v-166c0 -4 2 -6 6 -6h144zM300 51
c77 0 117 35 117 93c0 57 -40 94 -117 94h-147c-4 0 -6 -2 -6 -6v-175c0 -4 2 -6 6 -6h147z" />
    <glyph glyph-name="c.sc" horiz-adv-x="484" 
d="M261 -10c-90 0 -160 46 -187 131c-8 28 -15 64 -15 137s7 110 15 138c27 84 97 131 187 131c67 0 133 -31 168 -99c3 -5 1 -11 -5 -14l-28 -15c-6 -3 -11 -1 -14 4c-29 48 -71 71 -121 72c-64 0 -114 -32 -134 -95c-8 -24 -13 -51 -13 -122c0 -70 5 -97 13 -122
c20 -62 70 -94 134 -94c50 1 92 23 121 71c3 6 8 8 14 5l28 -15c6 -3 8 -9 5 -14c-35 -68 -101 -99 -168 -99z" />
    <glyph glyph-name="d.sc" horiz-adv-x="548" 
d="M282 0h-179c-6 0 -10 4 -10 10v497c0 6 4 10 10 10h179c98 0 160 -40 183 -114c9 -25 14 -56 14 -145c0 -88 -5 -119 -14 -145c-23 -73 -85 -113 -183 -113zM271 52c73 0 122 21 142 80c8 22 11 49 11 126c0 78 -3 104 -11 127c-20 58 -69 80 -142 80h-118
c-4 0 -6 -2 -6 -6v-401c0 -4 2 -6 6 -6h118z" />
    <glyph glyph-name="e.sc" horiz-adv-x="502" 
d="M430 0h-327c-6 0 -10 4 -10 10v497c0 6 4 10 10 10h327c6 0 10 -4 10 -10v-32c0 -6 -4 -10 -10 -10h-277c-4 0 -6 -2 -6 -6v-165c0 -4 2 -6 6 -6h236c6 0 10 -4 10 -10v-32c0 -6 -4 -10 -10 -10h-236c-4 0 -6 -2 -6 -6v-172c0 -4 2 -6 6 -6h277c6 0 10 -4 10 -10v-32
c0 -6 -4 -10 -10 -10z" />
    <glyph glyph-name="f.sc" horiz-adv-x="492" 
d="M137 0h-34c-6 0 -10 4 -10 10v497c0 6 4 10 10 10h327c6 0 10 -4 10 -10v-32c0 -6 -4 -10 -10 -10h-277c-4 0 -6 -2 -6 -6v-171c0 -4 2 -6 6 -6h236c6 0 10 -4 10 -10v-32c0 -6 -4 -10 -10 -10h-236c-4 0 -6 -2 -6 -6v-214c0 -6 -4 -10 -10 -10z" />
    <glyph glyph-name="g.sc" horiz-adv-x="524" 
d="M262 -10c-90 0 -161 47 -188 131c-8 28 -15 64 -15 137s7 110 15 138c27 84 98 131 188 131c87 0 146 -41 177 -99c3 -5 2 -11 -4 -14l-28 -15c-6 -2 -11 -1 -14 5c-28 44 -70 71 -131 71c-65 0 -115 -32 -135 -95c-8 -24 -13 -51 -13 -122c0 -70 5 -96 13 -121
c20 -63 70 -95 135 -95c67 0 116 31 137 94c7 21 11 44 11 76c0 4 -2 6 -6 6h-122c-6 0 -10 3 -10 8v32c0 6 4 9 10 9h174c5 0 8 -3 8 -9v-13c0 -60 -6 -97 -15 -125c-26 -84 -97 -130 -187 -130z" />
    <glyph glyph-name="h.sc" horiz-adv-x="577" 
d="M474 0h-34c-6 0 -10 4 -10 10v220c0 4 -2 6 -6 6h-271c-4 0 -6 -2 -6 -6v-220c0 -6 -4 -10 -10 -10h-34c-6 0 -10 4 -10 10v497c0 6 4 10 10 10h34c6 0 10 -4 10 -10v-214c0 -4 2 -6 6 -6h271c4 0 6 2 6 6v214c0 6 4 10 10 10h34c6 0 10 -4 10 -10v-497
c0 -6 -4 -10 -10 -10z" />
    <glyph glyph-name="i.sc" horiz-adv-x="240" 
d="M137 0h-34c-6 0 -10 4 -10 10v497c0 6 4 10 10 10h34c6 0 10 -4 10 -10v-497c0 -6 -4 -10 -10 -10z" />
    <glyph glyph-name="j.sc" horiz-adv-x="424" 
d="M171 -10c-56 0 -108 24 -134 50c-5 5 -4 10 1 14l25 21c4 5 9 4 14 0c19 -16 57 -33 95 -33c70 0 107 38 107 121v344c0 6 4 10 10 10h34c6 0 10 -4 10 -10v-345c0 -112 -58 -172 -162 -172z" />
    <glyph glyph-name="k.sc" horiz-adv-x="539" 
d="M484 0h-43c-7 0 -10 3 -14 9l-167 263l-113 -122v-140c0 -6 -4 -10 -10 -10h-34c-6 0 -10 4 -10 10v497c0 6 4 10 10 10h34c6 0 10 -4 10 -10v-288l260 288c6 7 10 10 17 10h44c6 0 9 -6 5 -11l-177 -193l194 -302c3 -6 1 -11 -6 -11z" />
    <glyph glyph-name="l.sc" horiz-adv-x="473" 
d="M417 0h-314c-6 0 -10 4 -10 10v497c0 6 4 10 10 10h34c6 0 10 -4 10 -10v-449c0 -4 2 -6 6 -6h264c6 0 10 -4 10 -10v-32c0 -6 -4 -10 -10 -10z" />
    <glyph glyph-name="m.sc" horiz-adv-x="664" 
d="M561 0h-32c-6 0 -10 4 -10 10v380h-3l-158 -304c-4 -8 -8 -11 -17 -11h-18c-9 0 -13 3 -17 11l-158 304h-3v-380c0 -6 -4 -10 -10 -10h-32c-6 0 -10 4 -10 10v497c0 6 4 10 10 10h34c6 0 11 -3 14 -10l181 -357h3l179 357c3 7 8 10 14 10h33c6 0 10 -4 10 -10v-497
c0 -6 -4 -10 -10 -10z" />
    <glyph glyph-name="n.sc" horiz-adv-x="579" 
d="M476 0h-33c-7 0 -11 2 -16 10l-280 406h-2v-406c0 -6 -4 -10 -10 -10h-32c-6 0 -10 4 -10 10v497c0 6 4 10 10 10h32c7 0 12 -3 17 -10l280 -406h2v406c0 6 4 10 10 10h32c6 0 10 -4 10 -10v-497c0 -6 -4 -10 -10 -10z" />
    <glyph glyph-name="o.sc" horiz-adv-x="523" 
d="M59 259c0 73 6 109 15 137c26 84 97 131 188 131c90 0 161 -47 187 -131c9 -28 15 -64 15 -137s-6 -110 -15 -138c-26 -84 -97 -131 -187 -131c-91 0 -162 47 -188 131c-9 28 -15 65 -15 138zM409 259c0 70 -4 96 -12 121c-21 63 -70 95 -135 95c-66 0 -115 -32 -136 -95
c-8 -25 -12 -51 -12 -121s4 -97 12 -122c21 -63 70 -95 136 -95c65 0 114 32 135 95c8 25 12 52 12 122z" />
    <glyph glyph-name="p.sc" horiz-adv-x="520" 
d="M137 0h-34c-6 0 -10 4 -10 10v497c0 6 4 10 10 10h195c110 0 175 -60 175 -150c0 -91 -65 -150 -175 -150h-145c-4 0 -6 -2 -6 -6v-201c0 -6 -4 -10 -10 -10zM297 269c79 0 121 36 121 98s-42 98 -121 98h-144c-4 0 -6 -2 -6 -6v-184c0 -4 2 -6 6 -6h144z" />
    <glyph glyph-name="q.sc" horiz-adv-x="523" 
d="M59 259c0 73 6 109 15 137c26 84 97 131 188 131c90 0 161 -47 187 -131c9 -28 15 -64 15 -137s-6 -110 -15 -138c-7 -22 -17 -42 -30 -59l54 -53c4 -4 5 -9 0 -14l-19 -22c-4 -4 -10 -4 -14 0l-56 54c-33 -24 -75 -37 -122 -37c-91 0 -162 47 -188 131
c-9 28 -15 65 -15 138zM409 259c0 70 -4 96 -12 121c-21 63 -70 95 -135 95c-66 0 -115 -32 -136 -95c-8 -25 -12 -51 -12 -121s4 -97 12 -122c21 -63 70 -95 136 -95c32 0 61 8 84 24l-57 56c-5 5 -5 10 -1 15l20 22c4 4 9 5 14 0l59 -58c8 12 12 23 17 36
c8 25 11 52 11 122z" />
    <glyph glyph-name="r.sc" horiz-adv-x="544" 
d="M472 0h-43c-6 0 -9 2 -13 9l-115 215h-148c-4 0 -6 -2 -6 -6v-208c0 -6 -4 -10 -10 -10h-34c-6 0 -10 4 -10 10v497c0 6 4 10 10 10h200c106 0 167 -59 167 -147c0 -72 -40 -123 -111 -140l118 -219c4 -6 1 -11 -5 -11zM301 275c76 0 115 36 115 95s-39 95 -115 95h-148
c-4 0 -6 -2 -6 -6v-178c0 -4 2 -6 6 -6h148z" />
    <glyph glyph-name="s.sc" horiz-adv-x="492" 
d="M239 -10c-76 0 -151 28 -191 61c-4 4 -5 10 -1 14l23 27c4 5 9 5 14 1c37 -27 96 -51 161 -51c88 0 139 39 139 98c0 48 -28 80 -129 93l-30 4c-113 15 -163 63 -163 141c0 91 69 149 178 149c64 0 126 -19 165 -46c5 -3 6 -9 2 -14l-17 -27c-4 -5 -9 -5 -14 -2
c-44 24 -89 37 -137 37c-79 0 -121 -38 -121 -93c0 -49 32 -81 129 -94l30 -4c112 -15 162 -61 162 -140c0 -89 -67 -154 -200 -154z" />
    <glyph glyph-name="t.sc" horiz-adv-x="452" 
d="M243 0h-34c-6 0 -10 4 -10 10v449c0 4 -2 6 -6 6h-159c-6 0 -10 4 -10 10v32c0 6 4 10 10 10h384c6 0 10 -4 10 -10v-32c0 -6 -4 -10 -10 -10h-159c-4 0 -6 -2 -6 -6v-449c0 -6 -4 -10 -10 -10z" />
    <glyph glyph-name="u.sc" horiz-adv-x="562" 
d="M281 -10c-117 0 -195 71 -195 199v318c0 6 4 10 10 10h34c6 0 10 -4 10 -10v-317c0 -98 55 -148 141 -148s141 50 141 148v317c0 6 4 10 10 10h34c6 0 10 -4 10 -10v-318c0 -128 -78 -199 -195 -199z" />
    <glyph glyph-name="v.sc" horiz-adv-x="485" 
d="M260 0h-34c-5 0 -7 3 -9 9l-187 494c-3 9 1 14 7 14h34c8 0 11 -3 14 -10l159 -418h2l155 418c3 7 6 10 14 10h33c6 0 10 -5 7 -14l-185 -494c-2 -6 -5 -9 -10 -9z" />
    <glyph glyph-name="w.sc" horiz-adv-x="706" 
d="M527 0h-30c-6 0 -10 3 -12 10l-131 406h-2l-131 -406c-2 -7 -6 -10 -12 -10h-30c-6 0 -9 3 -11 10l-137 494c-2 9 1 13 9 13h31c8 0 12 -3 14 -10l111 -404h2l129 404c2 6 6 10 11 10h30c5 0 9 -4 11 -10l132 -404h1l109 404c2 7 6 10 14 10h31c8 0 11 -4 9 -13
l-137 -494c-2 -7 -5 -10 -11 -10z" />
    <glyph glyph-name="x.sc" horiz-adv-x="469" 
d="M432 0h-42c-6 0 -10 2 -14 8l-141 209h-1l-141 -209c-5 -6 -8 -8 -15 -8h-41c-6 0 -9 5 -5 11l172 259l-155 236c-4 5 -1 11 5 11h41c6 0 10 -2 14 -9l125 -184h1l125 184c4 7 8 9 15 9h40c6 0 8 -6 5 -11l-154 -236l171 -259c3 -6 1 -11 -5 -11z" />
    <glyph glyph-name="y.sc" horiz-adv-x="447" 
d="M241 0h-34c-6 0 -10 4 -10 10v202l-166 290c-5 9 0 15 7 15h35c8 0 11 -3 16 -10l136 -231h1l134 231c5 7 8 10 16 10h33c7 0 12 -6 7 -15l-165 -290v-202c0 -6 -4 -10 -10 -10z" />
    <glyph glyph-name="z.sc" horiz-adv-x="465" 
d="M401 0h-340c-6 0 -10 4 -10 10v32c0 5 2 8 5 13l290 408v2h-263c-6 0 -10 4 -10 10v32c0 6 4 10 10 10h318c6 0 10 -4 10 -10v-32c0 -5 -1 -8 -5 -13l-289 -409v-1h284c6 0 10 -4 10 -10v-32c0 -6 -4 -10 -10 -10z" />
    <glyph glyph-name="agrave.sc" horiz-adv-x="513" 
d="M266 598h-25c-8 0 -12 3 -18 10l-88 122c-4 5 -1 10 5 10h38c8 0 12 -3 16 -10l77 -122c4 -6 1 -10 -5 -10zM474 0h-36c-6 0 -10 3 -13 10l-46 118h-245l-47 -118c-3 -7 -6 -10 -12 -10h-36c-6 0 -9 4 -7 10l196 497c2 6 6 10 12 10h35c6 0 10 -4 12 -10l194 -497
c2 -6 -1 -10 -7 -10zM257 438l-103 -259h205l-100 259h-2z" />
    <glyph glyph-name="aacute.sc" horiz-adv-x="513" 
d="M474 0h-36c-6 0 -10 3 -13 10l-46 118h-245l-47 -118c-3 -7 -6 -10 -12 -10h-36c-6 0 -9 4 -7 10l196 497c2 6 6 10 12 10h35c6 0 10 -4 12 -10l194 -497c2 -6 -1 -10 -7 -10zM257 438l-103 -259h205l-100 259h-2zM275 598h-25c-6 0 -9 4 -6 10l77 122c4 7 9 10 17 10h38
c6 0 9 -5 5 -10l-88 -122c-6 -7 -10 -10 -18 -10z" />
    <glyph glyph-name="acircumflex.sc" horiz-adv-x="513" 
d="M474 0h-36c-6 0 -10 3 -13 10l-46 118h-245l-47 -118c-3 -7 -6 -10 -12 -10h-36c-6 0 -9 4 -7 10l196 497c2 6 6 10 12 10h35c6 0 10 -4 12 -10l194 -497c2 -6 -1 -10 -7 -10zM257 438l-103 -259h205l-100 259h-2zM370 598h-25c-8 0 -11 2 -17 10l-71 85h-2l-70 -85
c-7 -8 -10 -10 -17 -10h-25c-6 0 -8 5 -4 10l90 123c5 7 9 9 16 9h23c7 0 10 -2 15 -9l91 -123c4 -5 2 -10 -4 -10z" />
    <glyph glyph-name="atilde.sc" horiz-adv-x="513" 
d="M309 636c-24 0 -42 10 -60 20c-16 10 -31 18 -49 18c-23 0 -39 -13 -58 -33c-5 -4 -9 -2 -9 3v30c0 6 2 9 8 16c16 17 36 30 61 30c24 0 43 -10 60 -21c16 -10 31 -18 49 -18c23 0 40 14 59 33c4 4 8 2 8 -3v-30c0 -6 -1 -9 -7 -15c-17 -18 -37 -30 -62 -30zM474 0h-36
c-6 0 -10 3 -13 10l-46 118h-245l-47 -118c-3 -7 -6 -10 -12 -10h-36c-6 0 -9 4 -7 10l196 497c2 6 6 10 12 10h35c6 0 10 -4 12 -10l194 -497c2 -6 -1 -10 -7 -10zM257 438l-103 -259h205l-100 259h-2z" />
    <glyph glyph-name="adieresis.sc" horiz-adv-x="513" 
d="M474 0h-36c-6 0 -10 3 -13 10l-46 118h-245l-47 -118c-3 -7 -6 -10 -12 -10h-36c-6 0 -9 4 -7 10l196 497c2 6 6 10 12 10h35c6 0 10 -4 12 -10l194 -497c2 -6 -1 -10 -7 -10zM257 438l-103 -259h205l-100 259h-2zM375 644h-40c-6 0 -10 4 -10 10v56c0 6 4 10 10 10h40
c6 0 10 -4 10 -10v-56c0 -6 -4 -10 -10 -10zM176 644h-40c-6 0 -10 4 -10 10v56c0 6 4 10 10 10h40c6 0 10 -4 10 -10v-56c0 -6 -4 -10 -10 -10z" />
    <glyph glyph-name="amacron.sc" horiz-adv-x="513" 
d="M474 0h-36c-6 0 -10 3 -13 10l-46 118h-245l-47 -118c-3 -7 -6 -10 -12 -10h-36c-6 0 -9 4 -7 10l196 497c2 6 6 10 12 10h35c6 0 10 -4 12 -10l194 -497c2 -6 -1 -10 -7 -10zM257 438l-103 -259h205l-100 259h-2zM376 658h-240c-6 0 -10 4 -10 10v26c0 6 4 10 10 10h240
c6 0 10 -4 10 -10v-26c0 -6 -4 -10 -10 -10z" />
    <glyph glyph-name="abreve.sc" horiz-adv-x="513" 
d="M256 610c-68 0 -116 43 -124 104c-1 6 3 10 9 10h19c7 0 10 -4 12 -10c11 -39 40 -60 84 -60c45 0 74 21 86 60c2 6 4 10 11 10h19c6 0 10 -4 9 -10c-9 -61 -56 -104 -125 -104zM474 0h-36c-6 0 -10 3 -13 10l-46 118h-245l-47 -118c-3 -7 -6 -10 -12 -10h-36
c-6 0 -9 4 -7 10l196 497c2 6 6 10 12 10h35c6 0 10 -4 12 -10l194 -497c2 -6 -1 -10 -7 -10zM257 438l-103 -259h205l-100 259h-2z" />
    <glyph glyph-name="aring.sc" horiz-adv-x="513" 
d="M256 580c-50 0 -88 38 -88 89s38 89 88 89c51 0 88 -38 88 -89s-37 -89 -88 -89zM256 614c32 0 54 23 54 55s-22 55 -54 55c-31 0 -54 -23 -54 -55s23 -55 54 -55zM474 0h-36c-6 0 -10 3 -13 10l-46 118h-245l-47 -118c-3 -7 -6 -10 -12 -10h-36c-6 0 -9 4 -7 10l196 497
c2 6 6 10 12 10h35c6 0 10 -4 12 -10l194 -497c2 -6 -1 -10 -7 -10zM257 438l-103 -259h205l-100 259h-2z" />
    <glyph glyph-name="aringacute.sc" horiz-adv-x="513" 
d="M269 708h-26c-6 0 -8 4 -4 10l82 104c5 7 9 10 18 10h39c6 0 9 -5 5 -10l-96 -105c-7 -8 -11 -9 -18 -9zM344 572c0 -38 -20 -67 -51 -81l188 -481c2 -6 -1 -10 -7 -10h-36c-6 0 -10 3 -13 10l-46 118h-245l-47 -118c-3 -7 -6 -10 -12 -10h-36c-6 0 -9 4 -7 10l190 480
c-32 13 -54 43 -54 82c0 51 37 88 88 88s88 -37 88 -88zM309 572c0 32 -21 56 -53 56s-53 -24 -53 -56s21 -56 53 -56s53 24 53 56zM257 438l-103 -259h205l-100 259h-2z" />
    <glyph glyph-name="aogonek.sc" horiz-adv-x="513" 
d="M394 -97c0 -18 11 -28 29 -28c9 0 18 3 28 9c5 3 10 2 13 -3l11 -21c2 -5 1 -9 -4 -13c-13 -10 -35 -19 -56 -19c-42 0 -70 25 -70 68c0 33 18 65 82 109l-48 123h-245l-47 -118c-3 -7 -6 -10 -12 -10h-36c-6 0 -9 4 -7 10l196 497c2 6 7 10 13 10h33c6 0 11 -4 13 -10
l194 -497c2 -5 1 -8 -4 -11c-69 -49 -83 -74 -83 -96zM359 179l-100 259h-2l-103 -259h205z" />
    <glyph glyph-name="ae.sc" horiz-adv-x="779" 
d="M707 0h-326c-6 0 -10 4 -10 10v112c0 4 -2 6 -6 6h-202l-72 -118c-4 -7 -8 -10 -15 -10h-38c-6 0 -9 5 -6 10l301 497c4 6 9 10 16 10h358c6 0 10 -4 10 -10v-32c0 -6 -4 -10 -10 -10h-276c-4 0 -6 -2 -6 -6v-165c0 -4 2 -6 6 -6h236c6 0 10 -4 10 -10v-32
c0 -6 -4 -10 -10 -10h-236c-4 0 -6 -2 -6 -6v-172c0 -4 2 -6 6 -6h276c6 0 10 -4 10 -10v-32c0 -6 -4 -10 -10 -10zM368 465l-174 -286h171c4 0 6 2 6 6v280h-3z" />
    <glyph glyph-name="aeacute.sc" horiz-adv-x="779" 
d="M707 0h-326c-6 0 -10 4 -10 10v112c0 4 -2 6 -6 6h-202l-72 -118c-4 -7 -8 -10 -15 -10h-38c-6 0 -9 5 -6 10l301 497c4 6 9 10 16 10h358c6 0 10 -4 10 -10v-32c0 -6 -4 -10 -10 -10h-276c-4 0 -6 -2 -6 -6v-165c0 -4 2 -6 6 -6h236c6 0 10 -4 10 -10v-32
c0 -6 -4 -10 -10 -10h-236c-4 0 -6 -2 -6 -6v-172c0 -4 2 -6 6 -6h276c6 0 10 -4 10 -10v-32c0 -6 -4 -10 -10 -10zM368 465l-174 -286h171c4 0 6 2 6 6v280h-3zM425 598h-25c-6 0 -9 4 -6 10l77 122c4 7 9 10 17 10h38c6 0 9 -5 5 -10l-88 -122c-6 -7 -10 -10 -18 -10z" />
    <glyph glyph-name="cacute.sc" horiz-adv-x="484" 
d="M249 598h-25c-6 0 -9 4 -6 10l77 122c4 7 9 10 17 10h38c6 0 9 -5 5 -10l-88 -122c-6 -7 -10 -10 -18 -10zM261 -10c-90 0 -160 46 -187 131c-8 28 -15 64 -15 137s7 110 15 138c27 84 97 131 187 131c67 0 133 -31 168 -99c3 -5 1 -11 -5 -14l-28 -15
c-6 -3 -11 -1 -14 4c-29 48 -71 71 -121 72c-64 0 -114 -32 -134 -95c-8 -24 -13 -51 -13 -122c0 -70 5 -97 13 -122c20 -62 70 -94 134 -94c50 1 92 23 121 71c3 6 8 8 14 5l28 -15c6 -3 8 -9 5 -14c-35 -68 -101 -99 -168 -99z" />
    <glyph glyph-name="ccircumflex.sc" horiz-adv-x="484" 
d="M261 -10c-90 0 -160 46 -187 131c-8 28 -15 64 -15 137s7 110 15 138c27 84 97 131 187 131c67 0 133 -31 168 -99c3 -5 1 -11 -5 -14l-28 -15c-6 -3 -11 -1 -14 4c-29 48 -71 71 -121 72c-64 0 -114 -32 -134 -95c-8 -24 -13 -51 -13 -122c0 -70 5 -97 13 -122
c20 -62 70 -94 134 -94c50 1 92 23 121 71c3 6 8 8 14 5l28 -15c6 -3 8 -9 5 -14c-35 -68 -101 -99 -168 -99zM372 598h-25c-8 0 -11 2 -17 10l-71 85h-2l-70 -85c-7 -8 -10 -10 -17 -10h-25c-6 0 -8 5 -4 10l90 123c5 7 9 9 16 9h23c7 0 10 -2 15 -9l91 -123
c4 -5 2 -10 -4 -10z" />
    <glyph glyph-name="ccaron.sc" horiz-adv-x="484" 
d="M269 598h-23c-7 0 -11 3 -16 10l-90 122c-4 5 -2 10 4 10h25c7 0 10 -2 17 -10l70 -85h2l71 85c6 8 9 10 17 10h25c6 0 8 -5 4 -10l-91 -122c-5 -7 -8 -10 -15 -10zM261 -10c-90 0 -160 46 -187 131c-8 28 -15 64 -15 137s7 110 15 138c27 84 97 131 187 131
c67 0 133 -31 168 -99c3 -5 1 -11 -5 -14l-28 -15c-6 -3 -11 -1 -14 4c-29 48 -71 71 -121 72c-64 0 -114 -32 -134 -95c-8 -24 -13 -51 -13 -122c0 -70 5 -97 13 -122c20 -62 70 -94 134 -94c50 1 92 23 121 71c3 6 8 8 14 5l28 -15c6 -3 8 -9 5 -14
c-35 -68 -101 -99 -168 -99z" />
    <glyph glyph-name="cdotaccent.sc" horiz-adv-x="484" 
d="M280 644h-44c-6 0 -10 4 -10 10v56c0 6 4 10 10 10h44c6 0 10 -4 10 -10v-56c0 -6 -4 -10 -10 -10zM261 -10c-90 0 -160 46 -187 131c-8 28 -15 64 -15 137s7 110 15 138c27 84 97 131 187 131c67 0 133 -31 168 -99c3 -5 1 -11 -5 -14l-28 -15c-6 -3 -11 -1 -14 4
c-29 48 -71 71 -121 72c-64 0 -114 -32 -134 -95c-8 -24 -13 -51 -13 -122c0 -70 5 -97 13 -122c20 -62 70 -94 134 -94c50 1 92 23 121 71c3 6 8 8 14 5l28 -15c6 -3 8 -9 5 -14c-35 -68 -101 -99 -168 -99z" />
    <glyph glyph-name="ccedilla.sc" horiz-adv-x="484" 
d="M221 -148h-31c-6 0 -9 4 -7 10l50 130c-76 8 -135 53 -159 129c-8 28 -15 64 -15 137s7 110 15 138c27 84 97 131 187 131c67 0 133 -31 168 -99c3 -5 1 -11 -5 -14l-28 -15c-6 -3 -11 -1 -14 4c-29 48 -71 71 -121 72c-64 0 -114 -32 -134 -95c-8 -24 -13 -51 -13 -122
c0 -70 5 -97 13 -122c20 -62 70 -94 134 -94c50 1 92 23 121 71c3 6 8 8 14 5l28 -15c6 -3 8 -9 5 -14c-32 -62 -89 -92 -149 -98l-43 -129c-3 -8 -7 -10 -16 -10z" />
    <glyph glyph-name="dcaron.sc" horiz-adv-x="548" 
d="M282 0h-179c-6 0 -10 4 -10 10v497c0 6 4 10 10 10h179c98 0 160 -40 183 -114c9 -25 14 -56 14 -145c0 -88 -5 -119 -14 -145c-23 -73 -85 -113 -183 -113zM271 52c73 0 122 21 142 80c8 22 11 49 11 126c0 78 -3 104 -11 127c-20 58 -69 80 -142 80h-118
c-4 0 -6 -2 -6 -6v-401c0 -4 2 -6 6 -6h118zM278 598h-23c-7 0 -11 3 -16 10l-90 122c-4 5 -2 10 4 10h25c7 0 10 -2 17 -10l70 -85h2l71 85c6 8 9 10 17 10h25c6 0 8 -5 4 -10l-91 -122c-5 -7 -8 -10 -15 -10z" />
    <glyph glyph-name="dcroat.sc" horiz-adv-x="548" 
d="M282 0h-179c-6 0 -10 4 -10 10v221c0 4 -2 6 -6 6h-33c-6 0 -10 4 -10 10v30c0 6 4 10 10 10h33c4 0 6 2 6 6v214c0 6 4 10 10 10h179c98 0 160 -40 183 -114c9 -25 14 -56 14 -145c0 -88 -5 -119 -14 -145c-23 -73 -85 -113 -183 -113zM271 52c73 0 122 21 142 80
c8 22 11 49 11 126c0 78 -3 104 -11 127c-20 58 -69 80 -142 80h-118c-4 0 -6 -2 -6 -6v-166c0 -4 2 -6 6 -6h106c6 0 10 -4 10 -10v-30c0 -6 -4 -10 -10 -10h-106c-4 0 -6 -2 -6 -6v-173c0 -4 2 -6 6 -6h118z" />
    <glyph glyph-name="eth.sc" horiz-adv-x="548" 
d="M282 0h-179c-6 0 -10 4 -10 10v221c0 4 -2 6 -6 6h-33c-6 0 -10 4 -10 10v30c0 6 4 10 10 10h33c4 0 6 2 6 6v214c0 6 4 10 10 10h179c98 0 160 -40 183 -114c9 -25 14 -56 14 -145c0 -88 -5 -119 -14 -145c-23 -73 -85 -113 -183 -113zM271 52c73 0 122 21 142 80
c8 22 11 49 11 126c0 78 -3 104 -11 127c-20 58 -69 80 -142 80h-118c-4 0 -6 -2 -6 -6v-166c0 -4 2 -6 6 -6h106c6 0 10 -4 10 -10v-30c0 -6 -4 -10 -10 -10h-106c-4 0 -6 -2 -6 -6v-173c0 -4 2 -6 6 -6h118z" />
    <glyph glyph-name="egrave.sc" horiz-adv-x="502" 
d="M298 598h-25c-8 0 -12 3 -18 10l-88 122c-4 5 -1 10 5 10h38c8 0 12 -3 16 -10l77 -122c4 -6 1 -10 -5 -10zM430 0h-327c-6 0 -10 4 -10 10v497c0 6 4 10 10 10h327c6 0 10 -4 10 -10v-32c0 -6 -4 -10 -10 -10h-277c-4 0 -6 -2 -6 -6v-165c0 -4 2 -6 6 -6h236
c6 0 10 -4 10 -10v-32c0 -6 -4 -10 -10 -10h-236c-4 0 -6 -2 -6 -6v-172c0 -4 2 -6 6 -6h277c6 0 10 -4 10 -10v-32c0 -6 -4 -10 -10 -10z" />
    </font>
</defs>
</svg>
