<?xml version="1.0" standalone="no"?>
<!DOCTYPE svg PUBLIC "-//W3C//DTD SVG 1.1//EN" "http://www.w3.org/Graphics/SVG/1.1/DTD/svg11.dtd" >
<svg>
<metadata>
Created by FontForge 20120731 at Thu Dec 26 16:08:59 2013
 By World Wide Web Server
Copyright (c) 2008 - 2009 Linotype GmbH, www.linotype.com. All rights reserved. This font software may not be reproduced, modified, disclosed or transferred without the express written approval of Linotype GmbH.
</metadata>
<defs>
<font id="DINNextLTPro-Regular" horiz-adv-x="542" >
  <font-face 
    font-family="DIN Next LT Pro"
    font-weight="400"
    font-stretch="normal"
    units-per-em="1000"
    panose-1="2 11 5 3 2 2 3 5 2 3"
    ascent="750"
    descent="-250"
    x-height="479"
    cap-height="680"
    bbox="-154.378 -213 1008 917"
    underline-thickness="50"
    underline-position="-50"
    stemh="61"
    stemv="84"
    unicode-range="U+0020-FB04"
  />
<missing-glyph horiz-adv-x="477" 
d="M0 10v660c0 6 4 10 10 10h457c6 0 10 -4 10 -10v-660c0 -6 -4 -10 -10 -10h-457c-6 0 -10 4 -10 10zM49 53c0 -4 2 -6 6 -6h367c4 0 6 2 6 6v574c0 4 -2 6 -6 6h-367c-4 0 -6 -2 -6 -6v-574zM208 231c-6 0 -10 4 -10 10v24c0 28 6 42 20 60l44 60c22 27 28 43 28 66
c0 34 -24 58 -59 58s-57 -19 -65 -54c-1 -6 -5 -10 -12 -9l-37 6c-6 1 -9 5 -8 11c12 60 55 99 124 99s116 -48 116 -111c0 -34 -10 -58 -32 -84l-43 -60c-13 -16 -17 -26 -17 -48v-18c0 -6 -4 -10 -10 -10h-39zM195 124v49c0 6 4 10 10 10h45c6 0 10 -4 10 -10v-49
c0 -6 -4 -10 -10 -10h-45c-6 0 -10 4 -10 10z" />
    <glyph glyph-name="napostrophe" unicode="&#x22;n" horiz-adv-x="544" 
d="M17 517c-6 0 -10 5 -10 11v142c0 6 4 10 10 10h60c6 0 10 -4 10 -10v-64c0 -8 -1 -13 -6 -20l-50 -61c-5 -6 -9 -8 -14 -8zM457 0h-64c-6 0 -10 4 -10 10v280c0 77 -35 122 -107 122c-65 0 -110 -46 -110 -117v-285c0 -6 -4 -10 -10 -10h-64c-6 0 -10 4 -10 10v459
c0 6 4 10 10 10h64c6 0 10 -4 10 -10v-44h1c23 37 69 65 134 65c104 0 166 -71 166 -180v-300c0 -6 -4 -10 -10 -10z" />
    <glyph glyph-name="IJ" unicode="IJ" horiz-adv-x="748" 
d="M84 10v660c0 6 4 10 10 10h69c6 0 10 -4 10 -10v-660c0 -6 -4 -10 -10 -10h-69c-6 0 -10 4 -10 10zM290 59c-4 4 -4 10 0 14l50 43c5 4 10 3 15 -2c21 -20 57 -42 99 -42c79 0 126 46 126 146v452c0 6 4 10 10 10h69c6 0 10 -4 10 -10v-452c0 -151 -85 -229 -218 -229
c-66 0 -128 30 -161 70z" />
    <glyph glyph-name="ij" unicode="ij" horiz-adv-x="496" 
d="M158 587h-68c-6 0 -10 4 -10 10v73c0 6 4 10 10 10h68c6 0 10 -4 10 -10v-73c0 -6 -4 -10 -10 -10zM156 0h-64c-6 0 -10 4 -10 10v459c0 6 4 10 10 10h64c6 0 10 -4 10 -10v-459c0 -6 -4 -10 -10 -10zM406 587h-68c-6 0 -10 4 -10 10v73c0 6 4 10 10 10h68
c6 0 10 -4 10 -10v-73c0 -6 -4 -10 -10 -10zM271 -180h-20c-6 0 -10 4 -10 10v58c0 6 4 10 10 10h16c47 0 63 13 63 64v507c0 6 4 10 10 10h64c6 0 10 -4 10 -10v-505c0 -103 -46 -144 -143 -144z" />
    <glyph glyph-name="fi" unicode="fi" horiz-adv-x="566" 
d="M172 0h-64c-6 0 -10 4 -10 10v395c0 4 -2 6 -6 6h-41c-6 0 -10 4 -10 10v48c0 6 4 10 10 10h41c4 0 6 2 6 6v41c0 113 46 154 146 154h37c6 0 10 -4 10 -10v-58c0 -6 -4 -10 -10 -10h-26c-61 0 -73 -13 -73 -72v-45c0 -4 2 -6 6 -6h93c6 0 10 -4 10 -10v-48
c0 -6 -4 -10 -10 -10h-93c-4 0 -6 -2 -6 -6v-395c0 -6 -4 -10 -10 -10zM476 587h-68c-6 0 -10 4 -10 10v73c0 6 4 10 10 10h68c6 0 10 -4 10 -10v-73c0 -6 -4 -10 -10 -10zM474 0h-64c-6 0 -10 4 -10 10v459c0 6 4 10 10 10h64c6 0 10 -4 10 -10v-459c0 -6 -4 -10 -10 -10z
" />
    <glyph glyph-name="fl" unicode="fl" horiz-adv-x="595" 
d="M172 0h-64c-6 0 -10 4 -10 10v395c0 4 -2 6 -6 6h-41c-6 0 -10 4 -10 10v48c0 6 4 10 10 10h41c4 0 6 2 6 6v41c0 113 46 154 146 154h37c6 0 10 -4 10 -10v-58c0 -6 -4 -10 -10 -10h-26c-61 0 -73 -13 -73 -72v-45c0 -4 2 -6 6 -6h93c6 0 10 -4 10 -10v-48
c0 -6 -4 -10 -10 -10h-93c-4 0 -6 -2 -6 -6v-395c0 -6 -4 -10 -10 -10zM549 -5h-34c-84 0 -117 40 -117 126v549c0 6 4 10 10 10h64c6 0 10 -4 10 -10v-544c0 -40 15 -53 48 -53h19c6 0 10 -4 10 -10v-58c0 -6 -4 -10 -10 -10z" />
    <glyph glyph-name="f_f" unicode="ff" horiz-adv-x="636" 
d="M172 0h-64c-6 0 -10 4 -10 10v395c0 4 -2 6 -6 6h-41c-6 0 -10 4 -10 10v48c0 6 4 10 10 10h41c4 0 6 2 6 6v41c0 113 46 154 146 154h37c6 0 10 -4 10 -10v-58c0 -6 -4 -10 -10 -10h-26c-61 0 -73 -13 -73 -72v-45c0 -4 2 -6 6 -6h93c6 0 10 -4 10 -10v-48
c0 -6 -4 -10 -10 -10h-93c-4 0 -6 -2 -6 -6v-395c0 -6 -4 -10 -10 -10zM490 0h-64c-6 0 -10 4 -10 10v395c0 4 -2 6 -6 6h-41c-6 0 -10 4 -10 10v48c0 6 4 10 10 10h41c4 0 6 2 6 6v41c0 113 46 154 146 154h37c6 0 10 -4 10 -10v-58c0 -6 -4 -10 -10 -10h-26
c-61 0 -73 -13 -73 -72v-45c0 -4 2 -6 6 -6h93c6 0 10 -4 10 -10v-48c0 -6 -4 -10 -10 -10h-93c-4 0 -6 -2 -6 -6v-395c0 -6 -4 -10 -10 -10z" />
    <glyph glyph-name="f_f_i" unicode="ffi" horiz-adv-x="884" 
d="M172 0h-64c-6 0 -10 4 -10 10v395c0 4 -2 6 -6 6h-41c-6 0 -10 4 -10 10v48c0 6 4 10 10 10h41c4 0 6 2 6 6v41c0 113 46 154 146 154h37c6 0 10 -4 10 -10v-58c0 -6 -4 -10 -10 -10h-26c-61 0 -73 -13 -73 -72v-45c0 -4 2 -6 6 -6h93c6 0 10 -4 10 -10v-48
c0 -6 -4 -10 -10 -10h-93c-4 0 -6 -2 -6 -6v-395c0 -6 -4 -10 -10 -10zM490 0h-64c-6 0 -10 4 -10 10v395c0 4 -2 6 -6 6h-41c-6 0 -10 4 -10 10v48c0 6 4 10 10 10h41c4 0 6 2 6 6v41c0 113 46 154 146 154h37c6 0 10 -4 10 -10v-58c0 -6 -4 -10 -10 -10h-26
c-61 0 -73 -13 -73 -72v-45c0 -4 2 -6 6 -6h93c6 0 10 -4 10 -10v-48c0 -6 -4 -10 -10 -10h-93c-4 0 -6 -2 -6 -6v-395c0 -6 -4 -10 -10 -10zM794 587h-68c-6 0 -10 4 -10 10v73c0 6 4 10 10 10h68c6 0 10 -4 10 -10v-73c0 -6 -4 -10 -10 -10zM792 0h-64c-6 0 -10 4 -10 10
v459c0 6 4 10 10 10h64c6 0 10 -4 10 -10v-459c0 -6 -4 -10 -10 -10z" />
    <glyph glyph-name="f_f_l" unicode="ffl" horiz-adv-x="913" 
d="M172 0h-64c-6 0 -10 4 -10 10v395c0 4 -2 6 -6 6h-41c-6 0 -10 4 -10 10v48c0 6 4 10 10 10h41c4 0 6 2 6 6v41c0 113 46 154 146 154h37c6 0 10 -4 10 -10v-58c0 -6 -4 -10 -10 -10h-26c-61 0 -73 -13 -73 -72v-45c0 -4 2 -6 6 -6h93c6 0 10 -4 10 -10v-48
c0 -6 -4 -10 -10 -10h-93c-4 0 -6 -2 -6 -6v-395c0 -6 -4 -10 -10 -10zM490 0h-64c-6 0 -10 4 -10 10v395c0 4 -2 6 -6 6h-41c-6 0 -10 4 -10 10v48c0 6 4 10 10 10h41c4 0 6 2 6 6v41c0 113 46 154 146 154h37c6 0 10 -4 10 -10v-58c0 -6 -4 -10 -10 -10h-26
c-61 0 -73 -13 -73 -72v-45c0 -4 2 -6 6 -6h93c6 0 10 -4 10 -10v-48c0 -6 -4 -10 -10 -10h-93c-4 0 -6 -2 -6 -6v-395c0 -6 -4 -10 -10 -10zM867 -5h-34c-84 0 -117 40 -117 126v549c0 6 4 10 10 10h64c6 0 10 -4 10 -10v-544c0 -40 15 -53 48 -53h19c6 0 10 -4 10 -10v-58
c0 -6 -4 -10 -10 -10z" />
    <glyph glyph-name=".notdef" horiz-adv-x="477" 
d="M0 10v660c0 6 4 10 10 10h457c6 0 10 -4 10 -10v-660c0 -6 -4 -10 -10 -10h-457c-6 0 -10 4 -10 10zM49 53c0 -4 2 -6 6 -6h367c4 0 6 2 6 6v574c0 4 -2 6 -6 6h-367c-4 0 -6 -2 -6 -6v-574zM208 231c-6 0 -10 4 -10 10v24c0 28 6 42 20 60l44 60c22 27 28 43 28 66
c0 34 -24 58 -59 58s-57 -19 -65 -54c-1 -6 -5 -10 -12 -9l-37 6c-6 1 -9 5 -8 11c12 60 55 99 124 99s116 -48 116 -111c0 -34 -10 -58 -32 -84l-43 -60c-13 -16 -17 -26 -17 -48v-18c0 -6 -4 -10 -10 -10h-39zM195 124v49c0 6 4 10 10 10h45c6 0 10 -4 10 -10v-49
c0 -6 -4 -10 -10 -10h-45c-6 0 -10 4 -10 10z" />
    <glyph glyph-name=".null" horiz-adv-x="500" 
 />
    <glyph glyph-name="CR" horiz-adv-x="0" 
 />
    <glyph glyph-name="space" unicode=" " horiz-adv-x="240" 
 />
    <glyph glyph-name="exclam" unicode="!" horiz-adv-x="288" 
d="M123 184c-6 0 -10 4 -10 10l-16 476c0 6 4 10 10 10h74c6 0 10 -4 10 -10l-16 -476c0 -6 -4 -10 -10 -10h-42zM96 10v86c0 6 4 10 10 10h76c6 0 10 -4 10 -10v-86c0 -6 -4 -10 -10 -10h-76c-6 0 -10 4 -10 10z" />
    <glyph glyph-name="quotedbl" unicode="&#x22;" horiz-adv-x="329" 
d="M208 503c-6 0 -10 4 -10 10v157c0 6 4 10 10 10h44c6 0 10 -4 10 -10v-157c0 -6 -4 -10 -10 -10h-44zM77 503c-6 0 -10 4 -10 10v157c0 6 4 10 10 10h44c6 0 10 -4 10 -10v-157c0 -6 -4 -10 -10 -10h-44z" />
    <glyph glyph-name="numbersign" unicode="#" horiz-adv-x="517" 
d="M79 10l28 204h-73c-6 0 -10 4 -10 10v43c0 6 4 10 10 10h81l19 140h-75c-6 0 -10 4 -10 10v42c0 6 4 10 10 10h84l26 191c1 6 4 10 11 10h45c7 0 10 -4 9 -10l-26 -191h133l26 191c1 6 4 10 11 10h45c7 0 10 -4 9 -10l-26 -191h77c6 0 10 -4 10 -10v-42
c0 -6 -4 -10 -10 -10h-86l-19 -140h79c6 0 10 -4 10 -10v-43c0 -6 -4 -10 -10 -10h-87l-28 -204c-1 -6 -4 -10 -11 -10h-45c-7 0 -10 4 -9 10l28 204h-133l-28 -204c-1 -6 -4 -10 -11 -10h-45c-7 0 -10 4 -9 10zM180 277h133l19 140h-133z" />
    <glyph glyph-name="dollar" unicode="$" 
d="M61 56c-4 3 -5 10 -1 14l37 50c4 5 10 4 14 1c35 -25 84 -50 141 -54v240c-120 22 -180 88 -180 186c0 111 73 187 180 197v51c0 6 4 10 10 10h29c6 0 10 -4 10 -10v-51c57 -5 109 -24 149 -50c5 -4 6 -8 2 -14l-32 -49c-4 -5 -9 -6 -14 -3c-34 20 -69 33 -105 37v-230
c122 -21 182 -86 182 -186c0 -111 -68 -190 -182 -203v-53c0 -6 -4 -10 -10 -10h-29c-6 0 -10 4 -10 10v50c-75 3 -142 30 -191 67zM252 390v221c-60 -8 -98 -50 -98 -111c0 -55 24 -92 98 -110zM301 70c62 11 100 53 100 120c0 54 -27 91 -100 108v-228z" />
    <glyph glyph-name="percent" unicode="%" horiz-adv-x="778" 
d="M157 -1l395 682c4 7 8 10 16 10h48c6 0 8 -5 5 -10l-395 -682c-4 -7 -8 -10 -15 -10h-48c-6 0 -9 5 -6 10zM198 330c-57 0 -99 30 -115 77c-6 19 -8 30 -8 102s2 83 8 102c16 47 58 77 115 77s99 -30 115 -77c6 -19 8 -30 8 -102s-2 -83 -8 -102
c-16 -47 -58 -77 -115 -77zM198 388c26 0 46 12 54 35c3 10 5 24 5 86s-2 76 -5 86c-8 23 -28 35 -54 35s-46 -12 -54 -35c-3 -10 -5 -24 -5 -86s2 -76 5 -86c8 -23 28 -35 54 -35zM465 68c-6 19 -8 30 -8 102s2 83 8 102c16 47 58 77 115 77s99 -30 115 -77
c6 -19 8 -30 8 -102s-2 -83 -8 -102c-16 -47 -58 -77 -115 -77s-99 30 -115 77zM526 84c8 -23 28 -35 54 -35s46 12 54 35c3 10 5 24 5 86s-2 76 -5 86c-8 23 -28 35 -54 35s-46 -12 -54 -35c-3 -10 -5 -24 -5 -86s2 -76 5 -86z" />
    <glyph glyph-name="ampersand" unicode="&#x26;" horiz-adv-x="633" 
d="M70 167c0 75 41 137 135 213c-60 78 -85 116 -85 165c0 84 65 146 156 146c95 0 156 -66 156 -146c0 -60 -31 -103 -121 -176l129 -166l69 85c4 5 9 6 14 2l39 -34c5 -4 6 -9 2 -14l-78 -99l33 -43c13 -16 24 -24 40 -24h15c6 0 10 -4 10 -10v-56c0 -6 -4 -10 -10 -10
h-27c-40 0 -59 9 -87 47l-27 35c-59 -64 -113 -93 -184 -93c-115 0 -179 75 -179 178zM267 429c76 59 87 85 87 118c0 41 -31 73 -78 73c-48 0 -75 -32 -75 -74c0 -29 15 -51 66 -117zM149 172c0 -67 38 -109 106 -109c47 0 84 22 133 78l-138 180
c-71 -56 -101 -99 -101 -149z" />
    <glyph glyph-name="quotesingle" unicode="'" horiz-adv-x="198" 
d="M77 503c-6 0 -10 4 -10 10v157c0 6 4 10 10 10h44c6 0 10 -4 10 -10v-157c0 -6 -4 -10 -10 -10h-44z" />
    <glyph glyph-name="parenleft" unicode="(" horiz-adv-x="285" 
d="M182 -74c-79 121 -119 265 -119 402s40 282 119 402c5 7 9 10 16 10h35c6 0 9 -4 6 -10c-60 -120 -95 -265 -95 -402s36 -284 95 -402c3 -6 0 -10 -6 -10h-35c-7 0 -11 3 -16 10z" />
    <glyph glyph-name="parenright" unicode=")" horiz-adv-x="285" 
d="M46 -74c59 118 95 265 95 402s-35 282 -95 402c-3 6 0 10 6 10h35c7 0 11 -3 16 -10c79 -120 119 -265 119 -402s-40 -281 -119 -402c-5 -7 -9 -10 -16 -10h-35c-6 0 -9 4 -6 10z" />
    <glyph glyph-name="asterisk" unicode="*" horiz-adv-x="342" 
d="M156 396c-6 0 -10 4 -10 10v89l-76 -45c-5 -4 -11 -2 -14 3l-15 28c-3 5 -2 11 4 14l76 42l-76 44c-6 3 -7 9 -4 14l15 28c3 5 9 7 14 3l76 -46v90c0 6 4 10 10 10h30c6 0 10 -4 10 -10l-1 -90l77 46c5 4 11 2 14 -3l15 -28c3 -5 2 -11 -4 -14l-76 -44l76 -42
c6 -3 7 -9 4 -14l-15 -28c-3 -5 -9 -7 -14 -3l-77 45l1 -89c0 -6 -4 -10 -10 -10h-30z" />
    <glyph glyph-name="plus" unicode="+" 
d="M233 75v158c0 4 -2 6 -6 6h-156c-6 0 -10 4 -10 10v54c0 6 4 10 10 10h156c4 0 6 2 6 6v158c0 6 4 10 10 10h56c6 0 10 -4 10 -10v-158c0 -4 2 -6 6 -6h156c6 0 10 -4 10 -10v-54c0 -6 -4 -10 -10 -10h-156c-4 0 -6 -2 -6 -6v-158c0 -6 -4 -10 -10 -10h-56
c-6 0 -10 4 -10 10z" />
    <glyph glyph-name="comma" unicode="," horiz-adv-x="230" 
d="M70 96c0 6 4 10 10 10h70c6 0 10 -4 10 -10v-93c0 -10 -1 -15 -6 -22l-62 -82c-4 -5 -8 -7 -13 -7s-9 4 -9 9v195z" />
    <glyph glyph-name="hyphen" unicode="-" horiz-adv-x="380" 
d="M57 227c-6 0 -10 4 -10 10v58c0 6 4 10 10 10h266c6 0 10 -4 10 -10v-58c0 -6 -4 -10 -10 -10h-266z" />
    <glyph glyph-name="period" unicode="." horiz-adv-x="236" 
d="M70 10v86c0 6 4 10 10 10h76c6 0 10 -4 10 -10v-86c0 -6 -4 -10 -10 -10h-76c-6 0 -10 4 -10 10z" />
    <glyph glyph-name="slash" unicode="/" horiz-adv-x="417" 
d="M61 -1l221 682c2 6 6 10 13 10h54c6 0 9 -4 7 -10l-222 -682c-2 -6 -6 -10 -13 -10h-53c-6 0 -9 4 -7 10z" />
    <glyph glyph-name="zero" unicode="0" 
d="M85 118c-8 26 -15 62 -15 222s7 196 15 222c27 83 92 129 186 129s159 -46 186 -129c8 -26 15 -62 15 -222s-7 -196 -15 -222c-27 -83 -92 -129 -186 -129s-159 46 -186 129zM168 135c16 -45 53 -68 103 -68s87 23 103 68c7 21 11 50 11 205s-4 184 -11 205
c-16 45 -53 68 -103 68s-87 -23 -103 -68c-7 -21 -11 -50 -11 -205s4 -184 11 -205z" />
    <glyph glyph-name="one" unicode="1" 
d="M244 10v564h-2l-113 -79c-6 -4 -11 -2 -11 6v74c0 6 2 10 7 14l117 85c5 4 9 6 16 6h60c6 0 10 -4 10 -10v-660c0 -6 -4 -10 -10 -10h-64c-6 0 -10 4 -10 10z" />
    <glyph glyph-name="two" unicode="2" 
d="M79 10v52c0 6 1 9 5 14l245 312c30 38 48 75 48 118c0 61 -41 107 -107 107c-65 0 -101 -39 -111 -100c-1 -6 -5 -9 -11 -8l-61 13c-6 2 -9 6 -8 12c9 81 73 161 193 161c119 0 191 -80 191 -185c0 -61 -25 -111 -66 -163l-210 -264v-1h266c6 0 10 -4 10 -10v-58
c0 -6 -4 -10 -10 -10h-364c-6 0 -10 4 -10 10z" />
    <glyph glyph-name="three" unicode="3" 
d="M67 133c-1 6 2 10 8 12l61 15c6 2 10 -1 12 -7c14 -43 49 -86 121 -86c73 0 117 51 117 120c0 76 -49 126 -125 126h-30c-6 0 -10 4 -10 10v58c0 6 4 10 10 10h29c68 0 113 45 113 114c0 63 -41 108 -109 108c-63 0 -96 -37 -108 -83c-2 -6 -6 -9 -12 -8l-60 15
c-6 1 -9 6 -8 12c14 76 82 142 191 142c120 0 192 -77 192 -184c0 -68 -37 -117 -84 -146v-2c42 -18 97 -76 97 -169c0 -119 -85 -201 -203 -201c-110 0 -183 61 -202 144z" />
    <glyph glyph-name="four" unicode="4" 
d="M63 119c-6 0 -10 4 -10 10v55c0 4 1 8 3 12l220 476c3 6 7 8 14 8h67c7 0 9 -4 7 -9l-217 -473v-2h180c4 0 6 2 6 6v178c0 6 4 10 10 10h64c6 0 10 -4 10 -10v-178c0 -4 2 -6 6 -6h62c6 0 10 -4 10 -10v-57c0 -6 -4 -10 -10 -10h-62c-4 0 -6 -2 -6 -6v-103
c0 -6 -4 -10 -10 -10h-64c-6 0 -10 4 -10 10v103c0 4 -2 6 -6 6h-264z" />
    <glyph glyph-name="five" unicode="5" 
d="M86 131c-1 6 2 11 8 12l59 15c7 1 11 -2 13 -8c11 -48 48 -83 111 -83c47 0 85 23 100 67c7 19 9 45 9 85c0 42 -3 67 -10 86c-15 46 -52 66 -99 66c-54 0 -89 -31 -100 -63c-3 -7 -5 -10 -12 -10h-59c-6 0 -10 4 -10 10v362c0 6 4 10 10 10h342c6 0 10 -4 10 -10v-58
c0 -6 -4 -10 -10 -10h-268c-4 0 -6 -2 -6 -6v-191h3c16 21 56 44 112 44c83 0 144 -39 168 -112c9 -29 15 -63 15 -118c0 -48 -5 -83 -14 -110c-25 -77 -95 -120 -181 -120c-105 0 -178 59 -191 142z" />
    <glyph glyph-name="six" unicode="6" 
d="M63 197c0 54 19 107 45 155l173 321c3 6 6 7 13 7h68c7 0 9 -4 6 -10l-152 -282l2 -2c13 9 40 16 69 16c107 0 193 -78 193 -202c0 -133 -91 -211 -209 -211c-119 0 -208 78 -208 208zM149 196c0 -76 48 -129 122 -129s123 53 123 129s-49 128 -123 128
s-122 -52 -122 -128z" />
    <glyph glyph-name="seven" unicode="7" 
d="M147 11l232 588v3h-207c-4 0 -6 -2 -6 -6v-85c0 -6 -4 -10 -10 -10h-60c-6 0 -10 4 -10 10v159c0 6 4 10 10 10h363c6 0 10 -4 10 -10v-62c0 -4 -1 -7 -2 -10l-234 -589c-3 -7 -5 -9 -13 -9h-67c-6 0 -9 4 -6 11z" />
    <glyph glyph-name="eight" unicode="8" 
d="M61 189c0 80 42 139 96 168v2c-43 24 -80 76 -80 144c0 102 73 188 194 188c122 0 194 -86 194 -188c0 -68 -37 -120 -80 -144v-2c54 -29 96 -88 96 -168c0 -119 -86 -200 -210 -200s-210 81 -210 200zM271 396c66 0 108 49 108 109s-43 108 -108 108s-108 -48 -108 -108
s42 -109 108 -109zM147 193c0 -73 50 -126 124 -126c75 0 124 53 124 126c0 72 -49 125 -124 125s-124 -53 -124 -125z" />
    <glyph glyph-name="nine" unicode="9" 
d="M174 10l152 282l-2 2c-13 -9 -40 -16 -69 -16c-107 0 -193 78 -193 202c0 133 91 211 209 211c119 0 208 -78 208 -208c0 -54 -19 -107 -45 -155l-173 -321c-3 -6 -6 -7 -13 -7h-68c-7 0 -9 4 -6 10zM271 356c74 0 122 52 122 128s-48 129 -122 129s-123 -53 -123 -129
s49 -128 123 -128z" />
    <glyph glyph-name="colon" unicode=":" horiz-adv-x="244" 
d="M84 373c-6 0 -10 4 -10 10v86c0 6 4 10 10 10h76c6 0 10 -4 10 -10v-86c0 -6 -4 -10 -10 -10h-76zM74 10v86c0 6 4 10 10 10h76c6 0 10 -4 10 -10v-86c0 -6 -4 -10 -10 -10h-76c-6 0 -10 4 -10 10z" />
    <glyph glyph-name="semicolon" unicode=";" horiz-adv-x="244" 
d="M84 373c-6 0 -10 4 -10 10v86c0 6 4 10 10 10h76c6 0 10 -4 10 -10v-86c0 -6 -4 -10 -10 -10h-76zM77 96c0 6 4 10 10 10h70c6 0 10 -4 10 -10v-93c0 -10 -1 -14 -6 -21l-62 -83c-4 -5 -8 -7 -13 -7s-9 4 -9 9v195z" />
    <glyph glyph-name="less" unicode="&#x3c;" 
d="M71 239c-6 2 -10 6 -10 13v47c0 7 3 11 10 14l400 164c6 2 10 0 10 -6v-62c0 -7 -2 -10 -10 -13l-301 -119v-2l301 -119c8 -3 10 -6 10 -13v-62c0 -6 -4 -8 -10 -6z" />
    <glyph glyph-name="equal" unicode="=" 
d="M71 339c-6 0 -10 4 -10 10v54c0 6 4 10 10 10h400c6 0 10 -4 10 -10v-54c0 -6 -4 -10 -10 -10h-400zM71 139c-6 0 -10 4 -10 10v54c0 6 4 10 10 10h400c6 0 10 -4 10 -10v-54c0 -6 -4 -10 -10 -10h-400z" />
    <glyph glyph-name="greater" unicode="&#x3e;" 
d="M61 81v62c0 7 2 10 10 13l301 119v2l-301 119c-8 3 -10 6 -10 13v62c0 6 4 8 10 6l400 -164c7 -3 10 -7 10 -14v-47c0 -7 -4 -11 -10 -13l-400 -164c-6 -2 -10 0 -10 6z" />
    <glyph glyph-name="question" unicode="?" horiz-adv-x="456" 
d="M190 182c-6 0 -10 4 -10 10v41c0 40 9 61 30 90l67 92c35 48 47 71 47 105c0 57 -40 93 -97 93c-56 0 -92 -34 -104 -95c-1 -6 -5 -9 -11 -8l-63 11c-6 1 -9 5 -8 11c15 96 84 159 188 159c108 0 181 -71 181 -170c0 -48 -17 -83 -51 -130l-67 -92
c-20 -27 -26 -41 -26 -75v-32c0 -6 -4 -10 -10 -10h-66zM175 10v86c0 6 4 10 10 10h76c6 0 10 -4 10 -10v-86c0 -6 -4 -10 -10 -10h-76c-6 0 -10 4 -10 10z" />
    <glyph glyph-name="at" unicode="@" horiz-adv-x="887" 
d="M47 268c0 231 162 392 395 392c232 0 394 -162 394 -392c0 -149 -72 -213 -159 -213c-58 0 -100 28 -119 71h-1c-22 -44 -67 -70 -135 -70c-72 0 -121 32 -143 98c-8 27 -13 56 -13 109s5 82 13 109c22 66 71 98 140 98c59 0 98 -25 115 -54h2v35c0 6 4 9 8 9h53
c6 0 9 -3 9 -9v-246c0 -59 34 -85 71 -85c47 0 88 35 88 148c0 193 -126 327 -323 327s-324 -132 -324 -327c0 -196 127 -328 324 -328c96 0 159 18 216 46c6 3 11 2 14 -4l16 -40c3 -5 1 -10 -4 -13c-67 -36 -139 -54 -242 -54c-233 0 -395 160 -395 393zM347 184
c14 -42 44 -62 90 -62s76 20 91 62c6 18 8 39 8 79s-2 61 -8 79c-15 42 -45 62 -91 62s-76 -20 -90 -62c-6 -18 -9 -39 -9 -79s3 -61 9 -79z" />
    <glyph glyph-name="A" unicode="A" horiz-adv-x="607" 
d="M24 10l236 660c2 6 5 10 12 10h65c7 0 11 -4 13 -10l233 -660c2 -6 -1 -10 -7 -10h-70c-7 0 -11 3 -13 10l-52 148h-275l-52 -148c-3 -7 -7 -10 -13 -10h-70c-6 0 -9 4 -7 10zM195 240h217l-107 309h-2z" />
    <glyph glyph-name="B" unicode="B" horiz-adv-x="604" 
d="M84 10v660c0 6 4 10 10 10h241c137 0 205 -70 205 -179c0 -79 -38 -127 -91 -148v-2c46 -13 103 -66 103 -157c0 -127 -80 -194 -222 -194h-236c-6 0 -10 4 -10 10zM179 386h154c75 0 119 43 119 106c0 65 -44 107 -119 107h-154c-4 0 -6 -2 -6 -6v-201c0 -4 2 -6 6 -6z
M173 87c0 -4 2 -6 6 -6h159c81 0 125 44 125 112c0 67 -44 112 -125 112h-159c-4 0 -6 -2 -6 -6v-212z" />
    <glyph glyph-name="C" unicode="C" horiz-adv-x="566" 
d="M78 149c-13 39 -18 78 -18 191s5 152 18 191c34 107 115 160 226 160c101 0 179 -50 218 -137c2 -5 1 -10 -4 -13l-60 -29c-6 -3 -12 0 -14 5c-27 53 -69 91 -140 91c-74 0 -119 -36 -141 -100c-9 -28 -13 -61 -13 -168s4 -140 13 -168c22 -64 67 -100 141 -100
c71 0 113 38 140 91c2 5 8 8 14 5l60 -29c5 -3 6 -8 4 -13c-39 -87 -117 -137 -218 -137c-111 0 -192 53 -226 160z" />
    <glyph glyph-name="D" unicode="D" horiz-adv-x="623" 
d="M84 10v660c0 6 4 10 10 10h229c115 0 191 -49 222 -145c12 -37 18 -74 18 -195s-6 -158 -18 -195c-31 -96 -107 -145 -222 -145h-229c-6 0 -10 4 -10 10zM173 89c0 -4 2 -6 6 -6h125c82 0 133 27 155 93c9 25 14 58 14 164s-5 139 -14 164c-22 66 -73 93 -155 93h-125
c-4 0 -6 -2 -6 -6v-502z" />
    <glyph glyph-name="E" unicode="E" horiz-adv-x="563" 
d="M84 10v660c0 6 4 10 10 10h409c6 0 10 -4 10 -10v-63c0 -6 -4 -10 -10 -10h-324c-4 0 -6 -2 -6 -6v-200c0 -4 2 -6 6 -6h275c6 0 10 -4 10 -10v-63c0 -6 -4 -10 -10 -10h-275c-4 0 -6 -2 -6 -6v-207c0 -4 2 -6 6 -6h324c6 0 10 -4 10 -10v-63c0 -6 -4 -10 -10 -10h-409
c-6 0 -10 4 -10 10z" />
    <glyph glyph-name="F" unicode="F" horiz-adv-x="556" 
d="M84 10v660c0 6 4 10 10 10h409c6 0 10 -4 10 -10v-63c0 -6 -4 -10 -10 -10h-324c-4 0 -6 -2 -6 -6v-207c0 -4 2 -6 6 -6h275c6 0 10 -4 10 -10v-63c0 -6 -4 -10 -10 -10h-275c-4 0 -6 -2 -6 -6v-279c0 -6 -4 -10 -10 -10h-69c-6 0 -10 4 -10 10z" />
    <glyph glyph-name="G" unicode="G" horiz-adv-x="619" 
d="M78 148c-12 39 -18 80 -18 192s6 153 18 192c34 105 118 159 233 159c119 0 192 -60 226 -135c3 -6 2 -11 -3 -14l-60 -29c-6 -3 -11 -1 -14 5c-33 61 -77 90 -149 90c-77 0 -126 -36 -147 -101c-9 -25 -14 -63 -14 -167s5 -142 14 -167c21 -65 70 -101 147 -101
c69 0 125 34 146 98c7 23 13 56 13 107c0 4 -2 6 -6 6h-132c-6 0 -10 4 -10 10v58c0 6 4 10 10 10h217c6 0 10 -4 10 -10v-51c0 -61 -7 -117 -17 -150c-33 -103 -118 -161 -231 -161c-115 0 -199 54 -233 159z" />
    <glyph glyph-name="H" unicode="H" horiz-adv-x="653" 
d="M84 10v660c0 6 4 10 10 10h69c6 0 10 -4 10 -10v-279c0 -4 2 -6 6 -6h295c4 0 6 2 6 6v279c0 6 4 10 10 10h69c6 0 10 -4 10 -10v-660c0 -6 -4 -10 -10 -10h-69c-6 0 -10 4 -10 10v286c0 4 -2 6 -6 6h-295c-4 0 -6 -2 -6 -6v-286c0 -6 -4 -10 -10 -10h-69
c-6 0 -10 4 -10 10z" />
    <glyph glyph-name="I" unicode="I" horiz-adv-x="257" 
d="M84 10v660c0 6 4 10 10 10h69c6 0 10 -4 10 -10v-660c0 -6 -4 -10 -10 -10h-69c-6 0 -10 4 -10 10z" />
    <glyph glyph-name="J" unicode="J" horiz-adv-x="491" 
d="M33 59c-4 4 -4 10 0 14l50 43c5 4 10 3 15 -2c21 -20 57 -42 99 -42c79 0 126 46 126 146v452c0 6 4 10 10 10h69c6 0 10 -4 10 -10v-452c0 -151 -85 -229 -218 -229c-66 0 -128 30 -161 70z" />
    <glyph glyph-name="K" unicode="K" horiz-adv-x="616" 
d="M84 10v660c0 6 4 10 10 10h69c6 0 10 -4 10 -10v-354l289 355c5 7 9 9 16 9h82c6 0 9 -6 4 -12l-212 -255l233 -402c4 -6 1 -11 -6 -11h-80c-7 0 -10 2 -14 9l-191 335l-121 -146v-188c0 -6 -4 -10 -10 -10h-69c-6 0 -10 4 -10 10z" />
    <glyph glyph-name="L" unicode="L" horiz-adv-x="538" 
d="M84 10v660c0 6 4 10 10 10h69c6 0 10 -4 10 -10v-581c0 -4 2 -6 6 -6h324c6 0 10 -4 10 -10v-63c0 -6 -4 -10 -10 -10h-409c-6 0 -10 4 -10 10z" />
    <glyph glyph-name="M" unicode="M" horiz-adv-x="755" 
d="M84 10v660c0 6 4 10 10 10h65c8 0 13 -3 16 -10l203 -458h3l199 458c3 7 8 10 16 10h65c6 0 10 -4 10 -10v-660c0 -6 -4 -10 -10 -10h-63c-6 0 -10 4 -10 10v473h-3l-169 -374c-4 -9 -9 -12 -18 -12h-40c-10 0 -15 3 -19 12l-169 374h-3v-473c0 -6 -4 -10 -10 -10h-63
c-6 0 -10 4 -10 10z" />
    <glyph glyph-name="N" unicode="N" horiz-adv-x="654" 
d="M84 10v660c0 6 4 10 10 10h64c8 0 13 -2 17 -10l308 -510h4v510c0 6 4 10 10 10h63c6 0 10 -4 10 -10v-660c0 -6 -4 -10 -10 -10h-64c-7 0 -13 2 -17 10l-309 508h-3v-508c0 -6 -4 -10 -10 -10h-63c-6 0 -10 4 -10 10z" />
    <glyph glyph-name="O" unicode="O" horiz-adv-x="619" 
d="M309 -11c-114 0 -196 54 -231 159c-13 39 -18 80 -18 192s5 153 18 192c35 105 117 159 231 159c115 0 197 -54 232 -159c13 -39 18 -80 18 -192s-5 -153 -18 -192c-35 -105 -117 -159 -232 -159zM309 72c76 0 124 36 145 101c8 25 15 69 15 167s-7 142 -15 167
c-21 65 -69 101 -145 101c-75 0 -123 -36 -144 -101c-8 -25 -15 -69 -15 -167s7 -142 15 -167c21 -65 69 -101 144 -101z" />
    <glyph glyph-name="P" unicode="P" horiz-adv-x="592" 
d="M163 0h-69c-6 0 -10 4 -10 10v660c0 6 4 10 10 10h242c131 0 216 -80 216 -203s-85 -203 -216 -203h-157c-4 0 -6 -2 -6 -6v-258c0 -6 -4 -10 -10 -10zM331 357c84 0 133 46 133 120s-49 120 -133 120h-152c-4 0 -6 -2 -6 -6v-228c0 -4 2 -6 6 -6h152z" />
    <glyph glyph-name="Q" unicode="Q" horiz-adv-x="619" 
d="M309 -11c-114 0 -196 54 -231 159c-13 39 -18 80 -18 192s5 153 18 192c35 105 117 159 231 159c115 0 197 -54 232 -159c13 -39 18 -80 18 -192s-5 -153 -18 -192c-7 -21 -16 -39 -26 -56l71 -70c4 -4 4 -9 0 -14l-44 -47c-4 -4 -10 -5 -15 0l-70 69
c-39 -27 -90 -41 -148 -41zM309 72c34 0 63 7 86 21l-74 75c-4 4 -4 9 0 14l44 48c5 4 10 4 14 0l70 -71l5 14c8 25 15 69 15 167s-7 142 -15 167c-21 65 -69 101 -145 101c-75 0 -123 -36 -144 -101c-8 -25 -15 -69 -15 -167s7 -142 15 -167c21 -65 69 -101 144 -101z" />
    <glyph glyph-name="R" unicode="R" horiz-adv-x="617" 
d="M558 0h-80c-7 0 -10 3 -13 10l-136 278h-150c-4 0 -6 -2 -6 -6v-272c0 -6 -4 -10 -10 -10h-69c-6 0 -10 4 -10 10v660c0 6 4 10 10 10h246c127 0 213 -78 213 -196c0 -92 -52 -159 -134 -185l145 -287c4 -6 1 -12 -6 -12zM338 371c79 0 126 42 126 113s-47 113 -126 113
h-159c-4 0 -6 -2 -6 -6v-214c0 -4 2 -6 6 -6h159z" />
    <glyph glyph-name="S" unicode="S" horiz-adv-x="591" 
d="M290 -11c-96 0 -189 39 -239 85c-4 4 -5 10 -1 15l44 52c4 5 9 5 14 1c44 -35 112 -70 190 -70c94 0 150 47 150 116c0 58 -33 97 -142 111l-34 5c-132 18 -200 81 -200 188c0 121 87 199 222 199c80 0 157 -26 207 -63c5 -4 6 -9 2 -14l-34 -55c-4 -5 -9 -5 -14 -2
c-55 34 -106 51 -164 51c-83 0 -129 -45 -129 -110c0 -57 38 -95 143 -109l33 -5c133 -18 200 -79 200 -190c0 -119 -84 -205 -248 -205z" />
    <glyph glyph-name="T" unicode="T" horiz-adv-x="537" 
d="M303 0h-69c-6 0 -10 4 -10 10v581c0 4 -2 6 -6 6h-186c-6 0 -10 4 -10 10v63c0 6 4 10 10 10h473c6 0 10 -4 10 -10v-63c0 -6 -4 -10 -10 -10h-186c-4 0 -6 -2 -6 -6v-581c0 -6 -4 -10 -10 -10z" />
    <glyph glyph-name="U" unicode="U" horiz-adv-x="639" 
d="M320 -11c-150 0 -241 88 -241 248v433c0 6 4 10 10 10h69c6 0 10 -4 10 -10v-432c0 -110 61 -166 152 -166c90 0 151 56 151 166v432c0 6 4 10 10 10h69c6 0 10 -4 10 -10v-433c0 -160 -91 -248 -240 -248z" />
    <glyph glyph-name="V" unicode="V" horiz-adv-x="562" 
d="M311 0h-59c-6 0 -10 4 -12 10l-220 658c-3 8 1 12 7 12h68c8 0 12 -3 14 -10l174 -525h2l168 525c2 7 6 10 13 10h69c6 0 10 -4 7 -12l-219 -658c-2 -6 -6 -10 -12 -10z" />
    <glyph glyph-name="W" unicode="W" horiz-adv-x="823" 
d="M623 0h-55c-6 0 -9 4 -11 10l-145 507h-2l-144 -507c-2 -6 -6 -10 -12 -10h-55c-6 0 -10 4 -11 10l-164 660c-2 6 1 10 8 10h66c7 0 11 -3 12 -10l121 -505h2l141 505c2 6 6 10 12 10h51c7 0 10 -4 12 -10l144 -505h2l118 505c2 7 6 10 13 10h65c7 0 9 -4 8 -10
l-164 -660c-1 -6 -6 -10 -12 -10z" />
    <glyph glyph-name="X" unicode="X" horiz-adv-x="558" 
d="M528 0h-79c-7 0 -11 3 -14 9l-156 259h-1l-156 -259c-4 -6 -8 -9 -15 -9h-78c-6 0 -9 6 -5 12l205 342l-187 314c-4 6 -1 12 5 12h78c8 0 11 -3 15 -9l138 -230h1l139 230c3 6 7 9 14 9h78c7 0 9 -6 6 -12l-188 -314l206 -342c3 -6 1 -12 -6 -12z" />
    <glyph glyph-name="Y" unicode="Y" horiz-adv-x="526" 
d="M297 0h-68c-6 0 -10 4 -10 10v268l-201 391c-2 6 1 11 8 11h71c7 0 11 -3 15 -10l152 -291h2l151 291c3 7 7 10 14 10h69c8 0 10 -5 8 -11l-201 -391v-268c0 -6 -4 -10 -10 -10z" />
    <glyph glyph-name="Z" unicode="Z" horiz-adv-x="536" 
d="M477 0h-418c-6 0 -10 4 -10 10v63c0 4 1 7 4 11l332 512v1h-314c-6 0 -10 4 -10 10v63c0 6 4 10 10 10h406c6 0 10 -4 10 -10v-63c0 -4 -1 -7 -4 -11l-333 -512v-1h327c6 0 10 -4 10 -10v-63c0 -6 -4 -10 -10 -10z" />
    <glyph glyph-name="bracketleft" unicode="[" horiz-adv-x="281" 
d="M234 -84h-144c-6 0 -10 4 -10 10v804c0 6 4 10 10 10h144c6 0 10 -4 10 -10v-48c0 -6 -4 -10 -10 -10h-69c-4 0 -6 -2 -6 -6v-676c0 -4 2 -6 6 -6h69c6 0 10 -4 10 -10v-48c0 -6 -4 -10 -10 -10z" />
    <glyph glyph-name="backslash" unicode="\" horiz-adv-x="417" 
d="M349 -11h-54c-7 0 -11 4 -13 10l-221 682c-2 6 1 10 7 10h53c7 0 11 -4 13 -10l222 -682c2 -6 -1 -10 -7 -10z" />
    <glyph glyph-name="bracketright" unicode="]" horiz-adv-x="281" 
d="M191 -84h-144c-6 0 -10 4 -10 10v48c0 6 4 10 10 10h69c4 0 6 2 6 6v676c0 4 -2 6 -6 6h-69c-6 0 -10 4 -10 10v48c0 6 4 10 10 10h144c6 0 10 -4 10 -10v-804c0 -6 -4 -10 -10 -10z" />
    <glyph glyph-name="asciicircum" unicode="^" 
d="M474 272h-58c-7 0 -11 3 -14 10l-130 292h-2l-130 -292c-3 -7 -7 -10 -13 -10h-59c-6 0 -9 4 -6 10l173 388c3 6 7 10 14 10h44c7 0 11 -4 14 -10l173 -388c3 -6 0 -10 -6 -10z" />
    <glyph glyph-name="underscore" unicode="_" horiz-adv-x="476" 
d="M476 -132h-476v56h476v-56z" />
    <glyph glyph-name="grave" unicode="`" horiz-adv-x="421" 
d="M286 557h-47c-9 0 -13 2 -19 10l-92 123c-4 5 -1 10 5 10h66c8 0 14 -3 18 -10l75 -123c3 -6 0 -10 -6 -10z" />
    <glyph glyph-name="a" unicode="a" horiz-adv-x="519" 
d="M431 0h-59c-6 0 -10 4 -10 10v42h-1c-22 -36 -69 -63 -142 -63c-91 0 -161 47 -161 144c0 101 70 148 187 148h109c4 0 6 2 6 6v35c0 66 -26 94 -115 94c-54 0 -88 -14 -116 -34c-5 -4 -11 -4 -14 1l-27 46c-3 6 -2 10 2 14c36 28 92 47 163 47c136 0 188 -45 188 -163
v-317c0 -6 -4 -10 -10 -10zM239 61c75 0 121 35 121 94v53c0 4 -2 6 -6 6h-96c-83 0 -119 -24 -119 -78c0 -49 36 -75 100 -75z" />
    <glyph glyph-name="b" unicode="b" horiz-adv-x="538" 
d="M156 0h-64c-6 0 -10 4 -10 10v660c0 6 4 10 10 10h64c6 0 10 -4 10 -10v-246h1c23 38 64 66 136 66c83 0 141 -39 165 -115c13 -38 17 -76 17 -135c0 -60 -4 -98 -17 -136c-24 -76 -82 -115 -165 -115c-72 0 -113 29 -136 67h-1v-46c0 -6 -4 -10 -10 -10zM283 67
c53 0 89 26 105 73c8 25 11 56 11 100c0 43 -3 74 -11 100c-16 47 -52 72 -105 72s-90 -24 -106 -72c-8 -24 -11 -52 -11 -100s3 -77 11 -100c16 -48 53 -73 106 -73z" />
    <glyph glyph-name="c" unicode="c" horiz-adv-x="472" 
d="M53 240c0 53 6 92 15 121c27 83 97 129 189 129c73 0 129 -31 164 -81c3 -5 3 -9 -3 -14l-44 -36c-5 -4 -10 -4 -14 1c-28 35 -55 52 -103 52c-52 0 -91 -25 -107 -75c-8 -25 -11 -55 -11 -97c0 -43 3 -73 11 -98c16 -50 55 -75 107 -75c48 0 75 17 103 52c4 5 9 5 14 1
l44 -36c6 -5 6 -9 3 -14c-35 -50 -91 -81 -164 -81c-92 0 -162 46 -189 129c-9 29 -15 68 -15 122z" />
    <glyph glyph-name="d" unicode="d" horiz-adv-x="538" 
d="M446 0h-64c-6 0 -10 4 -10 10v46h-1c-23 -38 -64 -67 -136 -67c-83 0 -141 39 -165 115c-13 38 -17 76 -17 136c0 59 4 97 17 135c24 76 82 115 165 115c72 0 113 -28 136 -66h1v246c0 6 4 10 10 10h64c6 0 10 -4 10 -10v-660c0 -6 -4 -10 -10 -10zM255 67
c53 0 90 25 106 73c8 23 11 52 11 100s-3 76 -11 100c-16 48 -53 72 -106 72s-89 -25 -105 -72c-8 -26 -11 -57 -11 -100c0 -44 3 -75 11 -100c16 -47 52 -73 105 -73z" />
    <glyph glyph-name="e" unicode="e" horiz-adv-x="512" 
d="M261 -11c-97 0 -166 47 -192 130c-10 31 -16 66 -16 121s5 92 15 121c27 83 97 129 188 129c92 0 161 -47 188 -129c10 -31 15 -64 15 -137c0 -6 -4 -10 -11 -10h-303c-4 0 -6 -2 -6 -6c0 -26 3 -42 8 -58c19 -55 62 -83 121 -83c57 0 97 23 123 53c5 5 10 6 15 2l41 -37
c5 -4 5 -9 1 -14c-38 -48 -103 -82 -187 -82zM145 281h222c4 0 6 2 6 6c0 22 -2 39 -7 54c-16 48 -56 75 -110 75s-94 -27 -110 -75c-5 -15 -7 -32 -7 -54c0 -4 2 -6 6 -6z" />
    <glyph glyph-name="f" unicode="f" horiz-adv-x="318" 
d="M172 0h-64c-6 0 -10 4 -10 10v395c0 4 -2 6 -6 6h-41c-6 0 -10 4 -10 10v48c0 6 4 10 10 10h41c4 0 6 2 6 6v41c0 113 46 154 146 154h37c6 0 10 -4 10 -10v-58c0 -6 -4 -10 -10 -10h-26c-61 0 -73 -13 -73 -72v-45c0 -4 2 -6 6 -6h93c6 0 10 -4 10 -10v-48
c0 -6 -4 -10 -10 -10h-93c-4 0 -6 -2 -6 -6v-395c0 -6 -4 -10 -10 -10z" />
    <glyph glyph-name="g" unicode="g" horiz-adv-x="529" 
d="M238 -191c-67 0 -134 29 -166 71c-4 5 -4 9 1 14l41 41c5 5 10 5 15 0c33 -30 67 -48 113 -48c79 0 121 41 121 129v56h-1c-22 -40 -63 -66 -133 -66c-81 0 -137 41 -161 116c-12 36 -16 71 -16 126s4 90 16 126c24 75 80 116 161 116c70 0 111 -26 133 -66h1v45
c0 6 4 10 10 10h64c6 0 10 -4 10 -10v-448c0 -136 -74 -212 -209 -212zM250 83c50 0 85 23 102 72c8 24 11 52 11 93s-3 68 -11 93c-17 49 -52 71 -102 71c-52 0 -85 -25 -101 -71c-8 -25 -12 -54 -12 -93s4 -69 12 -93c16 -47 49 -72 101 -72z" />
    <glyph glyph-name="h" unicode="h" horiz-adv-x="544" 
d="M457 0h-64c-6 0 -10 4 -10 10v280c0 77 -35 122 -107 122c-65 0 -110 -46 -110 -117v-285c0 -6 -4 -10 -10 -10h-64c-6 0 -10 4 -10 10v660c0 6 4 10 10 10h64c6 0 10 -4 10 -10v-245h1c23 37 69 65 134 65c104 0 166 -71 166 -180v-300c0 -6 -4 -10 -10 -10z" />
    <glyph glyph-name="i" unicode="i" horiz-adv-x="248" 
d="M158 587h-68c-6 0 -10 4 -10 10v73c0 6 4 10 10 10h68c6 0 10 -4 10 -10v-73c0 -6 -4 -10 -10 -10zM156 0h-64c-6 0 -10 4 -10 10v459c0 6 4 10 10 10h64c6 0 10 -4 10 -10v-459c0 -6 -4 -10 -10 -10z" />
    <glyph glyph-name="j" unicode="j" horiz-adv-x="248" 
d="M158 587h-68c-6 0 -10 4 -10 10v73c0 6 4 10 10 10h68c6 0 10 -4 10 -10v-73c0 -6 -4 -10 -10 -10zM23 -180h-20c-6 0 -10 4 -10 10v58c0 6 4 10 10 10h16c47 0 63 13 63 64v507c0 6 4 10 10 10h64c6 0 10 -4 10 -10v-505c0 -103 -46 -144 -143 -144z" />
    <glyph glyph-name="k" unicode="k" horiz-adv-x="511" 
d="M475 0h-74c-7 0 -12 3 -16 10l-136 223l-83 -97v-126c0 -6 -4 -10 -10 -10h-64c-6 0 -10 4 -10 10v660c0 6 4 10 10 10h64c6 0 10 -4 10 -10v-423l189 223c6 7 11 9 18 9h74c6 0 8 -5 4 -10l-147 -171l177 -288c3 -4 0 -10 -6 -10z" />
    <glyph glyph-name="l" unicode="l" horiz-adv-x="277" 
d="M231 -5h-34c-84 0 -117 40 -117 126v549c0 6 4 10 10 10h64c6 0 10 -4 10 -10v-544c0 -40 15 -53 48 -53h19c6 0 10 -4 10 -10v-58c0 -6 -4 -10 -10 -10z" />
    <glyph glyph-name="m" unicode="m" horiz-adv-x="845" 
d="M758 0h-64c-6 0 -10 4 -10 10v280c0 77 -35 122 -107 122c-64 0 -110 -46 -110 -117v-285c0 -6 -4 -10 -10 -10h-64c-6 0 -10 4 -10 10v280c0 77 -35 122 -107 122c-65 0 -110 -46 -110 -117v-285c0 -6 -4 -10 -10 -10h-64c-6 0 -10 4 -10 10v459c0 6 4 10 10 10h64
c6 0 10 -4 10 -10v-44h1c23 37 69 65 134 65s113 -27 140 -75h1c33 46 82 75 155 75c111 0 171 -71 171 -180v-300c0 -6 -4 -10 -10 -10z" />
    <glyph glyph-name="n" unicode="n" horiz-adv-x="544" 
d="M457 0h-64c-6 0 -10 4 -10 10v280c0 77 -35 122 -107 122c-65 0 -110 -46 -110 -117v-285c0 -6 -4 -10 -10 -10h-64c-6 0 -10 4 -10 10v459c0 6 4 10 10 10h64c6 0 10 -4 10 -10v-44h1c23 37 69 65 134 65c104 0 166 -71 166 -180v-300c0 -6 -4 -10 -10 -10z" />
    <glyph glyph-name="o" unicode="o" horiz-adv-x="516" 
d="M258 -11c-93 0 -163 48 -189 129c-11 33 -16 66 -16 122c0 55 5 88 16 121c26 82 96 129 189 129s163 -47 189 -129c11 -33 16 -66 16 -121c0 -56 -5 -89 -16 -122c-26 -81 -96 -129 -189 -129zM258 67c53 0 92 27 108 75c8 26 11 52 11 98s-3 71 -11 97
c-16 48 -55 75 -108 75s-92 -27 -108 -75c-8 -26 -11 -51 -11 -97s3 -72 11 -98c16 -48 55 -75 108 -75z" />
    <glyph glyph-name="p" unicode="p" horiz-adv-x="538" 
d="M156 -180h-64c-6 0 -10 4 -10 10v639c0 6 4 10 10 10h64c6 0 10 -4 10 -10v-45h1c23 38 64 66 136 66c83 0 141 -39 165 -115c13 -38 17 -76 17 -135c0 -60 -4 -98 -17 -136c-24 -76 -82 -115 -165 -115c-72 0 -113 29 -136 67h-1v-226c0 -6 -4 -10 -10 -10zM283 67
c53 0 89 26 105 73c8 25 11 56 11 100c0 43 -3 74 -11 100c-16 47 -52 72 -105 72s-90 -24 -106 -72c-8 -24 -11 -52 -11 -100s3 -77 11 -100c16 -48 53 -73 106 -73z" />
    <glyph glyph-name="q" unicode="q" horiz-adv-x="538" 
d="M446 -180h-64c-6 0 -10 4 -10 10v226h-1c-23 -38 -64 -67 -136 -67c-83 0 -141 39 -165 115c-13 38 -17 76 -17 136c0 59 4 97 17 135c24 76 82 115 165 115c72 0 113 -28 136 -66h1v45c0 6 4 10 10 10h64c6 0 10 -4 10 -10v-639c0 -6 -4 -10 -10 -10zM255 67
c53 0 90 25 106 73c8 23 11 52 11 100s-3 76 -11 100c-16 48 -53 72 -106 72s-89 -25 -105 -72c-8 -26 -11 -57 -11 -100c0 -44 3 -75 11 -100c16 -47 52 -73 105 -73z" />
    <glyph glyph-name="r" unicode="r" horiz-adv-x="410" 
d="M156 0h-64c-6 0 -10 4 -10 10v459c0 6 4 10 10 10h64c6 0 10 -4 10 -10v-49h1c21 41 63 70 127 70c38 0 74 -14 98 -36c5 -5 6 -9 2 -14l-37 -49c-4 -5 -9 -6 -14 -2c-22 14 -46 23 -74 23c-73 0 -103 -57 -103 -140v-262c0 -6 -4 -10 -10 -10z" />
    <glyph glyph-name="s" unicode="s" horiz-adv-x="490" 
d="M247 -11c-93 0 -159 38 -198 72c-4 4 -4 10 0 14l41 44c4 4 10 4 14 0c36 -31 90 -55 148 -55c70 0 105 30 105 73c0 38 -18 59 -93 67l-51 5c-94 10 -143 57 -143 135c0 91 65 146 178 146c70 0 130 -23 170 -53c5 -3 5 -9 2 -14l-34 -43c-4 -5 -9 -5 -14 -2
c-31 20 -80 39 -129 39c-60 0 -91 -27 -91 -66c0 -38 23 -58 94 -65l50 -5c97 -9 144 -58 144 -135c0 -94 -68 -157 -193 -157z" />
    <glyph glyph-name="t" unicode="t" horiz-adv-x="316" 
d="M258 -5h-37c-93 0 -129 42 -129 136v274c0 4 -2 6 -6 6h-40c-6 0 -10 4 -10 10v48c0 6 4 10 10 10h40c4 0 6 2 6 6v135c0 6 4 10 10 10h64c6 0 10 -4 10 -10v-135c0 -4 2 -6 6 -6h76c6 0 10 -4 10 -10v-48c0 -6 -4 -10 -10 -10h-76c-4 0 -6 -2 -6 -6v-271
c0 -48 18 -61 61 -61h21c6 0 10 -4 10 -10v-58c0 -6 -4 -10 -10 -10z" />
    <glyph glyph-name="u" unicode="u" horiz-adv-x="539" 
d="M447 0h-64c-6 0 -10 4 -10 10v45h-1c-25 -40 -69 -66 -131 -66c-105 0 -166 72 -166 181v299c0 6 4 10 10 10h64c6 0 10 -4 10 -10v-279c0 -78 35 -123 106 -123c65 0 108 46 108 118v284c0 6 4 10 10 10h64c6 0 10 -4 10 -10v-459c0 -6 -4 -10 -10 -10z" />
    <glyph glyph-name="v" unicode="v" horiz-adv-x="477" 
d="M267 0h-57c-7 0 -10 4 -12 10l-172 459c-2 6 1 10 8 10h69c7 0 10 -3 13 -10l124 -344h2l121 344c2 7 6 10 12 10h68c7 0 10 -4 8 -10l-171 -459c-2 -6 -6 -10 -13 -10z" />
    <glyph glyph-name="w" unicode="w" horiz-adv-x="745" 
d="M551 0h-57c-6 0 -10 4 -12 10l-108 343h-2l-109 -343c-2 -6 -6 -10 -12 -10h-58c-6 0 -10 4 -12 10l-150 459c-2 6 1 10 7 10h68c7 0 10 -2 13 -10l106 -346h2l108 346c2 7 6 10 12 10h52c6 0 11 -3 13 -10l109 -346h2l103 346c2 8 6 10 13 10h68c6 0 9 -4 7 -10
l-151 -459c-2 -6 -5 -10 -12 -10z" />
    <glyph glyph-name="x" unicode="x" horiz-adv-x="480" 
d="M443 0h-72c-7 0 -10 2 -15 9l-116 169h-1l-116 -169c-4 -7 -8 -9 -15 -9h-71c-8 0 -10 5 -7 10l163 240l-149 219c-3 5 -1 10 7 10h72c6 0 11 -1 15 -9l101 -149h1l103 149c4 7 8 9 14 9h72c8 0 10 -5 7 -10l-150 -219l164 -240c3 -5 1 -10 -7 -10z" />
    <glyph glyph-name="y" unicode="y" horiz-adv-x="477" 
d="M112 -180h-26c-6 0 -10 4 -10 10v58c0 6 4 10 10 10h18c39 0 60 17 81 72l16 44l-176 455c-2 6 1 10 8 10h70c6 0 10 -3 12 -10l126 -346h2l121 346c2 7 6 10 12 10h68c6 0 10 -4 8 -10l-189 -506c-42 -113 -79 -143 -151 -143z" />
    <glyph glyph-name="z" unicode="z" horiz-adv-x="477" 
d="M412 0h-347c-6 0 -10 4 -10 10v53c0 4 1 8 4 11l263 327v2h-244c-6 0 -10 4 -10 10v56c0 6 4 10 10 10h334c6 0 10 -4 10 -10v-56c0 -5 -1 -7 -4 -11l-261 -324v-2h255c6 0 10 -4 10 -10v-56c0 -6 -4 -10 -10 -10z" />
    <glyph glyph-name="braceleft" unicode="{" horiz-adv-x="333" 
d="M286 -84h-46c-70 0 -107 37 -107 113v182c0 57 -21 80 -62 81c-6 0 -10 4 -10 10v57c0 6 4 10 10 10c41 1 62 24 62 80v178c0 76 37 113 107 113h46c6 0 10 -4 10 -10v-48c0 -6 -4 -10 -10 -10h-29c-30 0 -45 -14 -45 -49v-173c0 -75 -18 -103 -62 -119v-1
c44 -16 62 -44 62 -119v-178c0 -35 15 -49 45 -49h29c6 0 10 -4 10 -10v-48c0 -6 -4 -10 -10 -10z" />
    <glyph glyph-name="bar" unicode="|" horiz-adv-x="290" 
d="M171 -84h-52c-6 0 -10 4 -10 10v804c0 6 4 10 10 10h52c6 0 10 -4 10 -10v-804c0 -6 -4 -10 -10 -10z" />
    <glyph glyph-name="braceright" unicode="}" horiz-adv-x="333" 
d="M93 -84h-46c-6 0 -10 4 -10 10v48c0 6 4 10 10 10h29c30 0 45 14 45 49v178c0 75 18 103 62 119v1c-44 16 -62 44 -62 119v173c0 35 -15 49 -45 49h-29c-6 0 -10 4 -10 10v48c0 6 4 10 10 10h46c70 0 107 -37 107 -113v-178c0 -56 21 -79 62 -80c6 0 10 -4 10 -10v-57
c0 -6 -4 -10 -10 -10c-41 -1 -62 -24 -62 -81v-182c0 -76 -37 -113 -107 -113z" />
    <glyph glyph-name="asciitilde" unicode="~" 
d="M286 307c23 -15 48 -29 71 -29c34 0 54 19 75 54c3 5 8 6 14 2l38 -22c6 -4 7 -7 4 -14c-26 -56 -76 -90 -132 -90c-41 0 -73 19 -100 37c-23 15 -48 29 -71 29c-34 0 -54 -19 -75 -54c-3 -5 -8 -6 -14 -2l-38 22c-6 4 -7 7 -4 14c26 56 76 90 132 90
c41 0 73 -19 100 -37z" />
    <glyph glyph-name="uni00A0" unicode="&#xa0;" horiz-adv-x="240" 
 />
    <glyph glyph-name="Agrave" unicode="&#xc0;" horiz-adv-x="607" 
d="M24 10l236 660c2 6 5 10 12 10h65c7 0 11 -4 13 -10l233 -660c2 -6 -1 -10 -7 -10h-70c-7 0 -11 3 -13 10l-52 148h-275l-52 -148c-3 -7 -7 -10 -13 -10h-70c-6 0 -9 4 -7 10zM195 240h217l-107 309h-2zM326 762h-49c-8 0 -11 1 -18 9l-107 107c-5 5 -2 10 4 10h70
c9 0 14 -4 19 -10l85 -106c5 -5 2 -10 -4 -10z" />
    <glyph glyph-name="Aacute" unicode="&#xc1;" horiz-adv-x="607" 
d="M24 10l236 660c2 6 5 10 12 10h65c7 0 11 -4 13 -10l233 -660c2 -6 -1 -10 -7 -10h-70c-7 0 -11 3 -13 10l-52 148h-275l-52 -148c-3 -7 -7 -10 -13 -10h-70c-6 0 -9 4 -7 10zM195 240h217l-107 309h-2zM331 762h-50c-6 0 -8 5 -4 10l86 106c5 6 9 10 18 10h70
c6 0 9 -5 5 -10l-107 -107c-7 -8 -11 -9 -18 -9z" />
    <glyph glyph-name="Acircumflex" unicode="&#xc2;" horiz-adv-x="607" 
d="M24 10l236 660c2 6 5 10 12 10h65c7 0 11 -4 13 -10l233 -660c2 -6 -1 -10 -7 -10h-70c-7 0 -11 3 -13 10l-52 148h-275l-52 -148c-3 -7 -7 -10 -13 -10h-70c-6 0 -9 4 -7 10zM195 240h217l-107 309h-2zM431 754h-45c-8 0 -12 2 -19 10l-63 70h-2l-64 -70
c-7 -8 -10 -10 -19 -10h-45c-6 0 -8 5 -4 10l95 123c5 7 9 10 16 10h43c7 0 11 -3 16 -10l95 -123c4 -5 2 -10 -4 -10z" />
    <glyph glyph-name="Atilde" unicode="&#xc3;" horiz-adv-x="607" 
d="M24 10l236 660c2 6 5 10 12 10h65c7 0 11 -4 13 -10l233 -660c2 -6 -1 -10 -7 -10h-70c-7 0 -11 3 -13 10l-52 148h-275l-52 -148c-3 -7 -7 -10 -13 -10h-70c-6 0 -9 4 -7 10zM195 240h217l-107 309h-2zM358 767c-24 0 -42 9 -63 21c-18 10 -33 18 -53 18
c-26 0 -44 -15 -63 -32c-4 -4 -8 -2 -8 2v48c0 8 1 11 7 18c18 19 41 32 68 32c25 0 43 -9 63 -20c18 -11 33 -18 53 -18c26 0 44 14 63 32c4 4 8 2 8 -3v-48c0 -7 -1 -11 -7 -17c-18 -19 -41 -33 -68 -33z" />
    <glyph glyph-name="Adieresis" unicode="&#xc4;" horiz-adv-x="607" 
d="M24 10l236 660c2 6 5 10 12 10h65c7 0 11 -4 13 -10l233 -660c2 -6 -1 -10 -7 -10h-70c-7 0 -11 3 -13 10l-52 148h-275l-52 -148c-3 -7 -7 -10 -13 -10h-70c-6 0 -9 4 -7 10zM195 240h217l-107 309h-2zM430 777h-56c-6 0 -10 4 -10 10v72c0 6 4 10 10 10h56
c6 0 10 -4 10 -10v-72c0 -6 -4 -10 -10 -10zM230 777h-56c-6 0 -10 4 -10 10v72c0 6 4 10 10 10h56c6 0 10 -4 10 -10v-72c0 -6 -4 -10 -10 -10z" />
    <glyph glyph-name="Amacron" unicode="&#x100;" horiz-adv-x="607" 
d="M24 10l236 660c2 6 5 10 12 10h65c7 0 11 -4 13 -10l233 -660c2 -6 -1 -10 -7 -10h-70c-7 0 -11 3 -13 10l-52 148h-275l-52 -148c-3 -7 -7 -10 -13 -10h-70c-6 0 -9 4 -7 10zM195 240h217l-107 309h-2zM430 790h-255c-6 0 -10 4 -10 10v45c0 6 4 10 10 10h255
c6 0 10 -4 10 -10v-45c0 -6 -4 -10 -10 -10z" />
    <glyph glyph-name="Abreve" unicode="&#x102;" horiz-adv-x="607" 
d="M24 10l236 660c2 6 5 10 12 10h65c7 0 11 -4 13 -10l233 -660c2 -6 -1 -10 -7 -10h-70c-7 0 -11 3 -13 10l-52 148h-275l-52 -148c-3 -7 -7 -10 -13 -10h-70c-6 0 -9 4 -7 10zM195 240h217l-107 309h-2zM303 761c-78 0 -129 47 -136 113c0 6 3 10 9 10h36
c6 0 9 -4 11 -10c11 -35 37 -52 80 -52c42 0 69 17 79 52c2 6 6 10 12 10h35c6 0 9 -4 9 -10c-7 -66 -58 -113 -135 -113z" />
    <glyph glyph-name="Aring" unicode="&#xc5;" horiz-adv-x="607" 
d="M24 10l236 660c2 6 5 10 12 10h65c7 0 11 -4 13 -10l233 -660c2 -6 -1 -10 -7 -10h-70c-7 0 -11 3 -13 10l-52 148h-275l-52 -148c-3 -7 -7 -10 -13 -10h-70c-6 0 -9 4 -7 10zM195 240h217l-107 309h-2zM303 729c-53 0 -95 40 -95 94s42 94 95 94s95 -40 95 -94
s-42 -94 -95 -94zM303 770c29 0 51 23 51 53s-22 53 -51 53s-51 -23 -51 -53s22 -53 51 -53z" />
    <glyph glyph-name="Aringacute" unicode="&#x1fa;" horiz-adv-x="607" 
d="M326 780h-48c-6 0 -7 5 -3 10l87 88c7 7 13 10 22 10h69c6 0 8 -6 3 -10l-108 -90c-8 -6 -13 -8 -22 -8zM399 656c0 -26 -10 -48 -25 -65l209 -581c2 -6 -2 -10 -8 -10h-69c-7 0 -11 3 -13 10l-52 148h-275l-52 -148c-3 -7 -7 -10 -13 -10h-69c-7 0 -10 4 -8 10l211 580
c-15 17 -26 40 -26 66c0 54 42 94 95 94s95 -40 95 -94zM304 603c29 0 51 23 51 53s-22 53 -51 53s-51 -23 -51 -53s22 -53 51 -53zM302 539l-107 -299h217l-106 299h-4z" />
    <glyph glyph-name="Aogonek" unicode="&#x104;" horiz-adv-x="607" 
d="M508 -182c-50 0 -84 28 -84 79c0 37 23 70 74 106c-2 1 -4 3 -6 8l-51 147h-275l-52 -148c-3 -7 -7 -10 -13 -10h-69c-7 0 -10 4 -8 10l236 660c2 6 5 10 12 10h65c7 0 11 -4 13 -10l233 -660c1 -4 0 -8 -4 -10c-64 -42 -84 -66 -84 -89c0 -17 10 -27 26 -27
c10 0 17 3 27 8c6 3 10 2 13 -4l17 -35c3 -5 2 -10 -3 -14c-17 -12 -44 -21 -67 -21zM303 550l-108 -310h217l-107 310h-2z" />
    <glyph glyph-name="AE" unicode="&#xc6;" horiz-adv-x="933" 
d="M872 0h-408c-6 0 -10 4 -10 10v142c0 4 -2 6 -6 6h-241l-82 -148c-4 -7 -8 -10 -14 -10h-80c-6 0 -9 4 -6 10l369 661c3 6 7 9 14 9h464c6 0 10 -4 10 -10v-63c0 -6 -4 -10 -10 -10h-323c-4 0 -6 -2 -6 -6v-200c0 -4 2 -6 6 -6h275c6 0 10 -4 10 -10v-63
c0 -6 -4 -10 -10 -10h-275c-4 0 -6 -2 -6 -6v-207c0 -4 2 -6 6 -6h323c6 0 10 -4 10 -10v-63c0 -6 -4 -10 -10 -10zM452 596l-199 -356h195c4 0 6 2 6 6v350h-2z" />
    <glyph glyph-name="AEacute" unicode="&#x1fc;" horiz-adv-x="933" 
d="M515 762h-50c-6 0 -8 5 -4 10l86 106c5 6 9 10 18 10h70c6 0 9 -5 5 -10l-107 -107c-7 -8 -11 -9 -18 -9zM872 0h-408c-6 0 -10 4 -10 10v142c0 4 -2 6 -6 6h-241l-82 -148c-4 -7 -8 -10 -14 -10h-80c-6 0 -9 4 -6 10l369 661c3 6 7 9 14 9h464c6 0 10 -4 10 -10v-63
c0 -6 -4 -10 -10 -10h-323c-4 0 -6 -2 -6 -6v-200c0 -4 2 -6 6 -6h275c6 0 10 -4 10 -10v-63c0 -6 -4 -10 -10 -10h-275c-4 0 -6 -2 -6 -6v-207c0 -4 2 -6 6 -6h323c6 0 10 -4 10 -10v-63c0 -6 -4 -10 -10 -10zM452 596l-199 -356h195c4 0 6 2 6 6v350h-2z" />
    <glyph glyph-name="Cacute" unicode="&#x106;" horiz-adv-x="566" 
d="M78 149c-13 39 -18 78 -18 191s5 152 18 191c34 107 115 160 226 160c101 0 179 -50 218 -137c2 -5 1 -10 -4 -13l-60 -29c-6 -3 -12 0 -14 5c-27 53 -69 91 -140 91c-74 0 -119 -36 -141 -100c-9 -28 -13 -61 -13 -168s4 -140 13 -168c22 -64 67 -100 141 -100
c71 0 113 38 140 91c2 5 8 8 14 5l60 -29c5 -3 6 -8 4 -13c-39 -87 -117 -137 -218 -137c-111 0 -192 53 -226 160zM305 762h-50c-6 0 -8 5 -4 10l86 106c5 6 9 10 18 10h70c6 0 9 -5 5 -10l-107 -107c-7 -8 -11 -9 -18 -9z" />
    <glyph glyph-name="Ccircumflex" unicode="&#x108;" horiz-adv-x="566" 
d="M78 149c-13 39 -18 78 -18 191s5 152 18 191c34 107 115 160 226 160c101 0 179 -50 218 -137c2 -5 1 -10 -4 -13l-60 -29c-6 -3 -12 0 -14 5c-27 53 -69 91 -140 91c-74 0 -119 -36 -141 -100c-9 -28 -13 -61 -13 -168s4 -140 13 -168c22 -64 67 -100 141 -100
c71 0 113 38 140 91c2 5 8 8 14 5l60 -29c5 -3 6 -8 4 -13c-39 -87 -117 -137 -218 -137c-111 0 -192 53 -226 160zM430 754h-45c-8 0 -12 2 -19 10l-63 70h-2l-64 -70c-7 -8 -10 -10 -19 -10h-45c-6 0 -8 5 -4 10l95 123c5 7 9 10 16 10h43c7 0 11 -3 16 -10l95 -123
c4 -5 2 -10 -4 -10z" />
    <glyph glyph-name="Ccaron" unicode="&#x10c;" horiz-adv-x="566" 
d="M78 149c-13 39 -18 78 -18 191s5 152 18 191c34 107 115 160 226 160c101 0 179 -50 218 -137c2 -5 1 -10 -4 -13l-60 -29c-6 -3 -12 0 -14 5c-27 53 -69 91 -140 91c-74 0 -119 -36 -141 -100c-9 -28 -13 -61 -13 -168s4 -140 13 -168c22 -64 67 -100 141 -100
c71 0 113 38 140 91c2 5 8 8 14 5l60 -29c5 -3 6 -8 4 -13c-39 -87 -117 -137 -218 -137c-111 0 -192 53 -226 160zM323 752h-43c-7 0 -11 3 -16 10l-95 124c-4 5 -2 10 4 10h45c9 0 12 -2 19 -10l64 -71h2l63 71c7 8 11 10 19 10h45c6 0 8 -5 4 -10l-95 -124
c-5 -7 -9 -10 -16 -10z" />
    <glyph glyph-name="Cdotaccent" unicode="&#x10a;" horiz-adv-x="566" 
d="M336 777h-69c-6 0 -10 4 -10 10v72c0 6 4 10 10 10h69c6 0 10 -4 10 -10v-72c0 -6 -4 -10 -10 -10zM78 149c-13 39 -18 78 -18 191s5 152 18 191c34 107 115 160 226 160c101 0 179 -50 218 -137c2 -5 1 -10 -4 -13l-60 -29c-6 -3 -12 0 -14 5c-27 53 -69 91 -140 91
c-74 0 -119 -36 -141 -100c-9 -28 -13 -61 -13 -168s4 -140 13 -168c22 -64 67 -100 141 -100c71 0 113 38 140 91c2 5 8 8 14 5l60 -29c5 -3 6 -8 4 -13c-39 -87 -117 -137 -218 -137c-111 0 -192 53 -226 160z" />
    <glyph glyph-name="Ccedilla" unicode="&#xc7;" horiz-adv-x="566" 
d="M275 -152h-55c-6 0 -9 4 -7 10l53 133c-92 13 -157 61 -188 158c-13 39 -18 78 -18 191s5 152 18 191c34 107 115 160 226 160c101 0 179 -50 218 -137c2 -5 1 -10 -4 -13l-60 -29c-6 -3 -12 0 -14 5c-27 53 -69 91 -140 91c-74 0 -119 -36 -141 -100
c-9 -28 -13 -61 -13 -168s4 -140 13 -168c22 -64 67 -100 141 -100c71 0 113 38 140 91c2 5 8 8 14 5l60 -29c5 -3 6 -8 4 -13c-34 -76 -100 -126 -188 -136l-43 -132c-2 -7 -7 -10 -16 -10z" />
    <glyph glyph-name="Dcaron" unicode="&#x10e;" horiz-adv-x="622" 
d="M318 752h-43c-7 0 -11 3 -16 10l-95 124c-4 5 -2 10 4 10h45c9 0 12 -2 19 -10l64 -71h2l63 71c7 8 11 10 19 10h45c6 0 8 -5 4 -10l-95 -124c-5 -7 -9 -10 -16 -10zM84 10v660c0 6 4 10 10 10h229c115 0 191 -49 222 -145c12 -37 18 -74 18 -195s-6 -158 -18 -195
c-31 -96 -107 -145 -222 -145h-229c-6 0 -10 4 -10 10zM173 89c0 -4 2 -6 6 -6h125c82 0 133 27 155 93c9 25 14 58 14 164s-5 139 -14 164c-22 66 -73 93 -155 93h-125c-4 0 -6 -2 -6 -6v-502z" />
    <glyph glyph-name="Dcroat" unicode="&#x110;" horiz-adv-x="622" 
d="M323 0h-229c-6 0 -10 4 -10 10v292c0 4 -2 6 -6 6h-32c-6 0 -10 4 -10 10v52c0 6 4 10 10 10h32c4 0 6 2 6 6v284c0 6 4 10 10 10h229c115 0 191 -49 222 -145c12 -37 18 -74 18 -195s-6 -158 -18 -195c-31 -96 -107 -145 -222 -145zM304 83c82 0 133 27 155 93
c9 25 14 58 14 164s-5 139 -14 164c-22 66 -73 93 -155 93h-125c-4 0 -6 -2 -6 -6v-205c0 -4 2 -6 6 -6h113c6 0 10 -4 10 -10v-52c0 -6 -4 -10 -10 -10h-113c-4 0 -6 -2 -6 -6v-213c0 -4 2 -6 6 -6h125z" />
    <glyph glyph-name="Eth" unicode="&#xd0;" horiz-adv-x="622" 
d="M323 0h-229c-6 0 -10 4 -10 10v292c0 4 -2 6 -6 6h-32c-6 0 -10 4 -10 10v52c0 6 4 10 10 10h32c4 0 6 2 6 6v284c0 6 4 10 10 10h229c115 0 191 -49 222 -145c12 -37 18 -74 18 -195s-6 -158 -18 -195c-31 -96 -107 -145 -222 -145zM304 83c82 0 133 27 155 93
c9 25 14 58 14 164s-5 139 -14 164c-22 66 -73 93 -155 93h-125c-4 0 -6 -2 -6 -6v-205c0 -4 2 -6 6 -6h113c6 0 10 -4 10 -10v-52c0 -6 -4 -10 -10 -10h-113c-4 0 -6 -2 -6 -6v-213c0 -4 2 -6 6 -6h125z" />
    <glyph glyph-name="Egrave" unicode="&#xc8;" horiz-adv-x="563" 
d="M341 762h-49c-8 0 -11 1 -18 9l-107 107c-5 5 -2 10 4 10h70c9 0 14 -4 19 -10l85 -106c5 -5 2 -10 -4 -10zM84 10v660c0 6 4 10 10 10h409c6 0 10 -4 10 -10v-63c0 -6 -4 -10 -10 -10h-324c-4 0 -6 -2 -6 -6v-200c0 -4 2 -6 6 -6h275c6 0 10 -4 10 -10v-63
c0 -6 -4 -10 -10 -10h-275c-4 0 -6 -2 -6 -6v-207c0 -4 2 -6 6 -6h324c6 0 10 -4 10 -10v-63c0 -6 -4 -10 -10 -10h-409c-6 0 -10 4 -10 10z" />
    <glyph glyph-name="Eacute" unicode="&#xc9;" horiz-adv-x="563" 
d="M295 762h-50c-6 0 -8 5 -4 10l86 106c5 6 9 10 18 10h70c6 0 9 -5 5 -10l-107 -107c-7 -8 -11 -9 -18 -9zM84 10v660c0 6 4 10 10 10h409c6 0 10 -4 10 -10v-63c0 -6 -4 -10 -10 -10h-324c-4 0 -6 -2 -6 -6v-200c0 -4 2 -6 6 -6h275c6 0 10 -4 10 -10v-63
c0 -6 -4 -10 -10 -10h-275c-4 0 -6 -2 -6 -6v-207c0 -4 2 -6 6 -6h324c6 0 10 -4 10 -10v-63c0 -6 -4 -10 -10 -10h-409c-6 0 -10 4 -10 10z" />
    <glyph glyph-name="Ecircumflex" unicode="&#xca;" horiz-adv-x="563" 
d="M84 10v660c0 6 4 10 10 10h409c6 0 10 -4 10 -10v-63c0 -6 -4 -10 -10 -10h-324c-4 0 -6 -2 -6 -6v-200c0 -4 2 -6 6 -6h275c6 0 10 -4 10 -10v-63c0 -6 -4 -10 -10 -10h-275c-4 0 -6 -2 -6 -6v-207c0 -4 2 -6 6 -6h324c6 0 10 -4 10 -10v-63c0 -6 -4 -10 -10 -10h-409
c-6 0 -10 4 -10 10zM427 754h-45c-8 0 -12 2 -19 10l-63 70h-2l-64 -70c-7 -8 -10 -10 -19 -10h-45c-6 0 -8 5 -4 10l95 123c5 7 9 10 16 10h43c7 0 11 -3 16 -10l95 -123c4 -5 2 -10 -4 -10z" />
    <glyph glyph-name="Ecaron" unicode="&#x11a;" horiz-adv-x="563" 
d="M318 752h-43c-7 0 -11 3 -16 10l-95 124c-4 5 -2 10 4 10h45c9 0 12 -2 19 -10l64 -71h2l63 71c7 8 11 10 19 10h45c6 0 8 -5 4 -10l-95 -124c-5 -7 -9 -10 -16 -10zM84 10v660c0 6 4 10 10 10h409c6 0 10 -4 10 -10v-63c0 -6 -4 -10 -10 -10h-324c-4 0 -6 -2 -6 -6v-200
c0 -4 2 -6 6 -6h275c6 0 10 -4 10 -10v-63c0 -6 -4 -10 -10 -10h-275c-4 0 -6 -2 -6 -6v-207c0 -4 2 -6 6 -6h324c6 0 10 -4 10 -10v-63c0 -6 -4 -10 -10 -10h-409c-6 0 -10 4 -10 10z" />
    <glyph glyph-name="Edieresis" unicode="&#xcb;" horiz-adv-x="563" 
d="M423 777h-56c-6 0 -10 4 -10 10v72c0 6 4 10 10 10h56c6 0 10 -4 10 -10v-72c0 -6 -4 -10 -10 -10zM223 777h-56c-6 0 -10 4 -10 10v72c0 6 4 10 10 10h56c6 0 10 -4 10 -10v-72c0 -6 -4 -10 -10 -10zM84 10v660c0 6 4 10 10 10h409c6 0 10 -4 10 -10v-63
c0 -6 -4 -10 -10 -10h-324c-4 0 -6 -2 -6 -6v-200c0 -4 2 -6 6 -6h275c6 0 10 -4 10 -10v-63c0 -6 -4 -10 -10 -10h-275c-4 0 -6 -2 -6 -6v-207c0 -4 2 -6 6 -6h324c6 0 10 -4 10 -10v-63c0 -6 -4 -10 -10 -10h-409c-6 0 -10 4 -10 10z" />
    <glyph glyph-name="Emacron" unicode="&#x112;" horiz-adv-x="563" 
d="M422 790h-255c-6 0 -10 4 -10 10v45c0 6 4 10 10 10h255c6 0 10 -4 10 -10v-45c0 -6 -4 -10 -10 -10zM84 10v660c0 6 4 10 10 10h409c6 0 10 -4 10 -10v-63c0 -6 -4 -10 -10 -10h-324c-4 0 -6 -2 -6 -6v-200c0 -4 2 -6 6 -6h275c6 0 10 -4 10 -10v-63
c0 -6 -4 -10 -10 -10h-275c-4 0 -6 -2 -6 -6v-207c0 -4 2 -6 6 -6h324c6 0 10 -4 10 -10v-63c0 -6 -4 -10 -10 -10h-409c-6 0 -10 4 -10 10z" />
    <glyph glyph-name="Ebreve" unicode="&#x114;" horiz-adv-x="563" 
d="M288 761c-78 0 -129 47 -136 113c0 6 3 10 9 10h36c6 0 9 -4 11 -10c11 -35 37 -52 80 -52c42 0 69 17 79 52c2 6 6 10 12 10h35c6 0 9 -4 9 -10c-7 -66 -58 -113 -135 -113zM84 10v660c0 6 4 10 10 10h409c6 0 10 -4 10 -10v-63c0 -6 -4 -10 -10 -10h-324
c-4 0 -6 -2 -6 -6v-200c0 -4 2 -6 6 -6h275c6 0 10 -4 10 -10v-63c0 -6 -4 -10 -10 -10h-275c-4 0 -6 -2 -6 -6v-207c0 -4 2 -6 6 -6h324c6 0 10 -4 10 -10v-63c0 -6 -4 -10 -10 -10h-409c-6 0 -10 4 -10 10z" />
    <glyph glyph-name="Edotaccent" unicode="&#x116;" horiz-adv-x="563" 
d="M332 777h-69c-6 0 -10 4 -10 10v72c0 6 4 10 10 10h69c6 0 10 -4 10 -10v-72c0 -6 -4 -10 -10 -10zM84 10v660c0 6 4 10 10 10h409c6 0 10 -4 10 -10v-63c0 -6 -4 -10 -10 -10h-324c-4 0 -6 -2 -6 -6v-200c0 -4 2 -6 6 -6h275c6 0 10 -4 10 -10v-63c0 -6 -4 -10 -10 -10
h-275c-4 0 -6 -2 -6 -6v-207c0 -4 2 -6 6 -6h324c6 0 10 -4 10 -10v-63c0 -6 -4 -10 -10 -10h-409c-6 0 -10 4 -10 10z" />
    <glyph glyph-name="Eogonek" unicode="&#x118;" horiz-adv-x="563" 
d="M424 -182c-50 0 -83 28 -83 79c0 37 19 68 68 103h-315c-6 0 -10 4 -10 10v660c0 6 4 10 10 10h409c6 0 10 -4 10 -10v-63c0 -6 -4 -10 -10 -10h-324c-4 0 -6 -2 -6 -6v-200c0 -4 2 -6 6 -6h275c6 0 10 -4 10 -10v-63c0 -6 -4 -10 -10 -10h-275c-4 0 -6 -2 -6 -6v-207
c0 -4 2 -6 6 -6h324c6 0 10 -4 10 -10v-63c0 -6 -4 -10 -10 -10h-9c-64 -42 -83 -66 -83 -89c0 -17 10 -27 27 -27c9 0 16 3 26 8c6 3 11 2 14 -4l17 -35c3 -5 1 -10 -4 -14c-17 -12 -43 -21 -67 -21z" />
    <glyph glyph-name="Gcircumflex" unicode="&#x11c;" horiz-adv-x="619" 
d="M78 148c-12 39 -18 80 -18 192s6 153 18 192c34 105 118 159 233 159c119 0 192 -60 226 -135c3 -6 2 -11 -3 -14l-60 -29c-6 -3 -11 -1 -14 5c-33 61 -77 90 -149 90c-77 0 -126 -36 -147 -101c-9 -25 -14 -63 -14 -167s5 -142 14 -167c21 -65 70 -101 147 -101
c69 0 125 34 146 98c7 23 13 56 13 107c0 4 -2 6 -6 6h-132c-6 0 -10 4 -10 10v58c0 6 4 10 10 10h217c6 0 10 -4 10 -10v-51c0 -61 -7 -117 -17 -150c-33 -103 -118 -161 -231 -161c-115 0 -199 54 -233 159zM437 754h-45c-8 0 -12 2 -19 10l-63 70h-2l-64 -70
c-7 -8 -10 -10 -19 -10h-45c-6 0 -8 5 -4 10l95 123c5 7 9 10 16 10h43c7 0 11 -3 16 -10l95 -123c4 -5 2 -10 -4 -10z" />
    <glyph glyph-name="Gbreve" unicode="&#x11e;" horiz-adv-x="619" 
d="M309 761c-78 0 -129 47 -136 113c0 6 3 10 9 10h36c6 0 9 -4 11 -10c11 -35 37 -52 80 -52c42 0 69 17 79 52c2 6 6 10 12 10h35c6 0 9 -4 9 -10c-7 -66 -58 -113 -135 -113zM78 148c-12 39 -18 80 -18 192s6 153 18 192c34 105 118 159 233 159c119 0 192 -60 226 -135
c3 -6 2 -11 -3 -14l-60 -29c-6 -3 -11 -1 -14 5c-33 61 -77 90 -149 90c-77 0 -126 -36 -147 -101c-9 -25 -14 -63 -14 -167s5 -142 14 -167c21 -65 70 -101 147 -101c69 0 125 34 146 98c7 23 13 56 13 107c0 4 -2 6 -6 6h-132c-6 0 -10 4 -10 10v58c0 6 4 10 10 10h217
c6 0 10 -4 10 -10v-51c0 -61 -7 -117 -17 -150c-33 -103 -118 -161 -231 -161c-115 0 -199 54 -233 159z" />
    <glyph glyph-name="Gdotaccent" unicode="&#x120;" horiz-adv-x="619" 
d="M343 777h-69c-6 0 -10 4 -10 10v72c0 6 4 10 10 10h69c6 0 10 -4 10 -10v-72c0 -6 -4 -10 -10 -10zM78 148c-12 39 -18 80 -18 192s6 153 18 192c34 105 118 159 233 159c119 0 192 -60 226 -135c3 -6 2 -11 -3 -14l-60 -29c-6 -3 -11 -1 -14 5c-33 61 -77 90 -149 90
c-77 0 -126 -36 -147 -101c-9 -25 -14 -63 -14 -167s5 -142 14 -167c21 -65 70 -101 147 -101c69 0 125 34 146 98c7 23 13 56 13 107c0 4 -2 6 -6 6h-132c-6 0 -10 4 -10 10v58c0 6 4 10 10 10h217c6 0 10 -4 10 -10v-51c0 -61 -7 -117 -17 -150
c-33 -103 -118 -161 -231 -161c-115 0 -199 54 -233 159z" />
    <glyph glyph-name="Gcommaaccent" unicode="&#x122;" horiz-adv-x="619" 
d="M278 -213c-5 0 -9 4 -9 10v140c0 6 4 10 10 10h60c6 0 10 -4 10 -10v-61c0 -8 -1 -13 -6 -20l-51 -61c-4 -6 -9 -8 -14 -8zM78 148c-12 39 -18 80 -18 192s6 153 18 192c34 105 118 159 233 159c119 0 192 -60 226 -135c3 -6 2 -11 -3 -14l-60 -29c-6 -3 -11 -1 -14 5
c-33 61 -77 90 -149 90c-77 0 -126 -36 -147 -101c-9 -25 -14 -63 -14 -167s5 -142 14 -167c21 -65 70 -101 147 -101c69 0 125 34 146 98c7 23 13 56 13 107c0 4 -2 6 -6 6h-132c-6 0 -10 4 -10 10v58c0 6 4 10 10 10h217c6 0 10 -4 10 -10v-51c0 -61 -7 -117 -17 -150
c-33 -103 -118 -161 -231 -161c-115 0 -199 54 -233 159z" />
    <glyph glyph-name="Hcircumflex" unicode="&#x124;" horiz-adv-x="653" 
d="M84 10v660c0 6 4 10 10 10h69c6 0 10 -4 10 -10v-279c0 -4 2 -6 6 -6h295c4 0 6 2 6 6v279c0 6 4 10 10 10h69c6 0 10 -4 10 -10v-660c0 -6 -4 -10 -10 -10h-69c-6 0 -10 4 -10 10v286c0 4 -2 6 -6 6h-295c-4 0 -6 -2 -6 -6v-286c0 -6 -4 -10 -10 -10h-69
c-6 0 -10 4 -10 10zM454 754h-45c-8 0 -12 2 -19 10l-63 70h-2l-64 -70c-7 -8 -10 -10 -19 -10h-45c-6 0 -8 5 -4 10l95 123c5 7 9 10 16 10h43c7 0 11 -3 16 -10l95 -123c4 -5 2 -10 -4 -10z" />
    <glyph glyph-name="Hbar" unicode="&#x126;" horiz-adv-x="653" 
d="M559 0h-69c-6 0 -10 4 -10 10v286c0 4 -2 6 -6 6h-295c-4 0 -6 -2 -6 -6v-286c0 -6 -4 -10 -10 -10h-69c-6 0 -10 4 -10 10v480c0 4 -2 6 -6 6h-37c-6 0 -10 4 -10 10v48c0 6 4 10 10 10h37c4 0 6 2 6 6v100c0 6 4 10 10 10h69c6 0 10 -4 10 -10v-100c0 -4 2 -6 6 -6h295
c4 0 6 2 6 6v100c0 6 4 10 10 10h69c6 0 10 -4 10 -10v-100c0 -4 2 -6 6 -6h37c6 0 10 -4 10 -10v-48c0 -6 -4 -10 -10 -10h-37c-4 0 -6 -2 -6 -6v-480c0 -6 -4 -10 -10 -10zM474 385c4 0 6 2 6 6v99c0 4 -2 6 -6 6h-295c-4 0 -6 -2 -6 -6v-99c0 -4 2 -6 6 -6h295z" />
    <glyph glyph-name="Igrave" unicode="&#xcc;" horiz-adv-x="257" 
d="M84 10v660c0 6 4 10 10 10h69c6 0 10 -4 10 -10v-660c0 -6 -4 -10 -10 -10h-69c-6 0 -10 4 -10 10zM155 762h-49c-8 0 -11 1 -18 9l-107 107c-5 5 -2 10 4 10h70c9 0 14 -4 19 -10l85 -106c5 -5 2 -10 -4 -10z" />
    <glyph glyph-name="Iacute" unicode="&#xcd;" horiz-adv-x="257" 
d="M84 10v660c0 6 4 10 10 10h69c6 0 10 -4 10 -10v-660c0 -6 -4 -10 -10 -10h-69c-6 0 -10 4 -10 10zM156 762h-50c-6 0 -8 5 -4 10l86 106c5 6 9 10 18 10h70c6 0 9 -5 5 -10l-107 -107c-7 -8 -11 -9 -18 -9z" />
    <glyph glyph-name="Ibreve" unicode="&#x12c;" horiz-adv-x="257" 
d="M84 10v660c0 6 4 10 10 10h69c6 0 10 -4 10 -10v-660c0 -6 -4 -10 -10 -10h-69c-6 0 -10 4 -10 10zM130 761c-78 0 -129 47 -136 113c0 6 3 10 9 10h36c6 0 9 -4 11 -10c11 -35 37 -52 80 -52c42 0 69 17 79 52c2 6 6 10 12 10h35c6 0 9 -4 9 -10
c-7 -66 -58 -113 -135 -113z" />
    <glyph glyph-name="Icircumflex" unicode="&#xce;" horiz-adv-x="257" 
d="M84 10v660c0 6 4 10 10 10h69c6 0 10 -4 10 -10v-660c0 -6 -4 -10 -10 -10h-69c-6 0 -10 4 -10 10zM258 754h-45c-8 0 -12 2 -19 10l-63 70h-2l-64 -70c-7 -8 -10 -10 -19 -10h-45c-6 0 -8 5 -4 10l95 123c5 7 9 10 16 10h43c7 0 11 -3 16 -10l95 -123c4 -5 2 -10 -4 -10
z" />
    <glyph glyph-name="Itilde" unicode="&#x128;" horiz-adv-x="257" 
d="M84 10v660c0 6 4 10 10 10h69c6 0 10 -4 10 -10v-660c0 -6 -4 -10 -10 -10h-69c-6 0 -10 4 -10 10zM185 767c-24 0 -42 9 -63 21c-18 10 -33 18 -53 18c-26 0 -44 -15 -63 -32c-4 -4 -8 -2 -8 2v48c0 8 1 11 7 18c18 19 41 32 68 32c25 0 43 -9 63 -20
c18 -11 33 -18 53 -18c26 0 44 14 63 32c4 4 8 2 8 -3v-48c0 -7 -1 -11 -7 -17c-18 -19 -41 -33 -68 -33z" />
    <glyph glyph-name="Idieresis" unicode="&#xcf;" horiz-adv-x="257" 
d="M84 10v660c0 6 4 10 10 10h69c6 0 10 -4 10 -10v-660c0 -6 -4 -10 -10 -10h-69c-6 0 -10 4 -10 10zM257 777h-56c-6 0 -10 4 -10 10v72c0 6 4 10 10 10h56c6 0 10 -4 10 -10v-72c0 -6 -4 -10 -10 -10zM57 777h-56c-6 0 -10 4 -10 10v72c0 6 4 10 10 10h56
c6 0 10 -4 10 -10v-72c0 -6 -4 -10 -10 -10z" />
    <glyph glyph-name="Imacron" unicode="&#x12a;" horiz-adv-x="257" 
d="M84 10v660c0 6 4 10 10 10h69c6 0 10 -4 10 -10v-660c0 -6 -4 -10 -10 -10h-69c-6 0 -10 4 -10 10zM257 790h-255c-6 0 -10 4 -10 10v45c0 6 4 10 10 10h255c6 0 10 -4 10 -10v-45c0 -6 -4 -10 -10 -10z" />
    <glyph glyph-name="Idotaccent" unicode="&#x130;" horiz-adv-x="257" 
d="M84 10v660c0 6 4 10 10 10h69c6 0 10 -4 10 -10v-660c0 -6 -4 -10 -10 -10h-69c-6 0 -10 4 -10 10zM164 777h-69c-6 0 -10 4 -10 10v72c0 6 4 10 10 10h69c6 0 10 -4 10 -10v-72c0 -6 -4 -10 -10 -10z" />
    <glyph glyph-name="Iogonek" unicode="&#x12e;" horiz-adv-x="257" 
d="M115 -182c-50 0 -84 28 -84 79c0 34 19 65 58 103c-3 1 -5 5 -5 10v660c0 6 4 10 10 10h69c6 0 10 -4 10 -10v-660c0 -4 -1 -7 -5 -10c-54 -49 -66 -67 -66 -89c0 -17 10 -27 26 -27c9 0 18 3 27 8c6 3 10 2 13 -4l17 -35c3 -5 2 -10 -3 -14c-17 -12 -44 -21 -67 -21z
" />
    <glyph glyph-name="Jcircumflex" unicode="&#x134;" horiz-adv-x="491" 
d="M33 59c-4 4 -4 10 0 14l50 43c5 4 10 3 15 -2c21 -20 57 -42 99 -42c79 0 126 46 126 146v452c0 6 4 10 10 10h69c6 0 10 -4 10 -10v-452c0 -151 -85 -229 -218 -229c-66 0 -128 30 -161 70zM490 754h-45c-8 0 -12 2 -19 10l-63 70h-2l-64 -70c-7 -8 -10 -10 -19 -10h-45
c-6 0 -8 5 -4 10l95 123c5 7 9 10 16 10h43c7 0 11 -3 16 -10l95 -123c4 -5 2 -10 -4 -10z" />
    <glyph glyph-name="Kcommaaccent" unicode="&#x136;" horiz-adv-x="616" 
d="M278 -213c-5 0 -9 4 -9 10v140c0 6 4 10 10 10h60c6 0 10 -4 10 -10v-61c0 -8 -1 -13 -6 -20l-51 -61c-4 -6 -9 -8 -14 -8zM84 10v660c0 6 4 10 10 10h69c6 0 10 -4 10 -10v-354l289 355c5 7 9 9 16 9h82c6 0 9 -6 4 -12l-212 -255l233 -402c4 -6 1 -11 -6 -11h-80
c-7 0 -10 2 -14 9l-191 335l-121 -146v-188c0 -6 -4 -10 -10 -10h-69c-6 0 -10 4 -10 10z" />
    <glyph glyph-name="Lacute" unicode="&#x139;" horiz-adv-x="538" 
d="M166 762h-50c-6 0 -8 5 -4 10l86 106c5 6 9 10 18 10h70c6 0 9 -5 5 -10l-107 -107c-7 -8 -11 -9 -18 -9zM84 10v660c0 6 4 10 10 10h69c6 0 10 -4 10 -10v-581c0 -4 2 -6 6 -6h324c6 0 10 -4 10 -10v-63c0 -6 -4 -10 -10 -10h-409c-6 0 -10 4 -10 10z" />
    <glyph glyph-name="Lcaron" unicode="&#x13d;" horiz-adv-x="538" 
d="M256 517c-6 0 -10 5 -10 11v142c0 6 4 10 10 10h60c6 0 10 -4 10 -10v-64c0 -8 -1 -13 -6 -20l-50 -61c-5 -6 -9 -8 -14 -8zM84 10v660c0 6 4 10 10 10h69c6 0 10 -4 10 -10v-581c0 -4 2 -6 6 -6h324c6 0 10 -4 10 -10v-63c0 -6 -4 -10 -10 -10h-409c-6 0 -10 4 -10 10z
" />
    <glyph glyph-name="Lcommaaccent" unicode="&#x13b;" horiz-adv-x="538" 
d="M266 -213c-5 0 -9 4 -9 10v140c0 6 4 10 10 10h60c6 0 10 -4 10 -10v-61c0 -8 -1 -13 -6 -20l-51 -61c-4 -6 -9 -8 -14 -8zM84 10v660c0 6 4 10 10 10h69c6 0 10 -4 10 -10v-581c0 -4 2 -6 6 -6h324c6 0 10 -4 10 -10v-63c0 -6 -4 -10 -10 -10h-409c-6 0 -10 4 -10 10z
" />
    <glyph glyph-name="Lslash" unicode="&#x141;" horiz-adv-x="538" 
d="M503 0h-409c-6 0 -10 4 -10 10v264l-54 -27c-6 -3 -10 0 -10 6v61c0 6 2 10 10 14l54 27v315c0 6 4 10 10 10h69c6 0 10 -4 10 -10v-272l142 73c6 3 10 0 10 -6v-61c0 -6 -2 -10 -10 -14l-142 -73v-228c0 -4 2 -6 6 -6h324c6 0 10 -4 10 -10v-63c0 -6 -4 -10 -10 -10z
" />
    <glyph glyph-name="Ldot" unicode="&#x13f;" horiz-adv-x="538" 
d="M84 10v660c0 6 4 10 10 10h69c6 0 10 -4 10 -10v-581c0 -4 2 -6 6 -6h324c6 0 10 -4 10 -10v-63c0 -6 -4 -10 -10 -10h-409c-6 0 -10 4 -10 10zM436 273h-76c-6 0 -10 4 -10 10v86c0 6 4 10 10 10h76c6 0 10 -4 10 -10v-86c0 -6 -4 -10 -10 -10z" />
    <glyph glyph-name="Nacute" unicode="&#x143;" horiz-adv-x="654" 
d="M325 762h-50c-6 0 -8 5 -4 10l86 106c5 6 9 10 18 10h70c6 0 9 -5 5 -10l-107 -107c-7 -8 -11 -9 -18 -9zM84 10v660c0 6 4 10 10 10h64c8 0 13 -2 17 -10l308 -510h4v510c0 6 4 10 10 10h63c6 0 10 -4 10 -10v-660c0 -6 -4 -10 -10 -10h-64c-7 0 -13 2 -17 10l-309 508
h-3v-508c0 -6 -4 -10 -10 -10h-63c-6 0 -10 4 -10 10z" />
    <glyph glyph-name="Ncaron" unicode="&#x147;" horiz-adv-x="654" 
d="M346 752h-43c-7 0 -11 3 -16 10l-95 124c-4 5 -2 10 4 10h45c9 0 12 -2 19 -10l64 -71h2l63 71c7 8 11 10 19 10h45c6 0 8 -5 4 -10l-95 -124c-5 -7 -9 -10 -16 -10zM84 10v660c0 6 4 10 10 10h64c8 0 13 -2 17 -10l308 -510h4v510c0 6 4 10 10 10h63c6 0 10 -4 10 -10
v-660c0 -6 -4 -10 -10 -10h-64c-7 0 -13 2 -17 10l-309 508h-3v-508c0 -6 -4 -10 -10 -10h-63c-6 0 -10 4 -10 10z" />
    <glyph glyph-name="Ntilde" unicode="&#xd1;" horiz-adv-x="654" 
d="M382 767c-24 0 -42 9 -63 21c-18 10 -33 18 -53 18c-26 0 -44 -15 -63 -32c-4 -4 -8 -2 -8 2v48c0 8 1 11 7 18c18 19 41 32 68 32c25 0 43 -9 63 -20c18 -11 33 -18 53 -18c26 0 44 14 63 32c4 4 8 2 8 -3v-48c0 -7 -1 -11 -7 -17c-18 -19 -41 -33 -68 -33zM84 10v660
c0 6 4 10 10 10h64c8 0 13 -2 17 -10l308 -510h4v510c0 6 4 10 10 10h63c6 0 10 -4 10 -10v-660c0 -6 -4 -10 -10 -10h-64c-7 0 -13 2 -17 10l-309 508h-3v-508c0 -6 -4 -10 -10 -10h-63c-6 0 -10 4 -10 10z" />
    <glyph glyph-name="Ncommaaccent" unicode="&#x145;" horiz-adv-x="654" 
d="M299 -213c-5 0 -9 4 -9 10v140c0 6 4 10 10 10h60c6 0 10 -4 10 -10v-61c0 -8 -1 -13 -6 -20l-51 -61c-4 -6 -9 -8 -14 -8zM84 10v660c0 6 4 10 10 10h64c8 0 13 -2 17 -10l308 -510h4v510c0 6 4 10 10 10h63c6 0 10 -4 10 -10v-660c0 -6 -4 -10 -10 -10h-64
c-7 0 -13 2 -17 10l-309 508h-3v-508c0 -6 -4 -10 -10 -10h-63c-6 0 -10 4 -10 10z" />
    <glyph glyph-name="Ograve" unicode="&#xd2;" horiz-adv-x="619" 
d="M351 762h-49c-8 0 -11 1 -18 9l-107 107c-5 5 -2 10 4 10h70c9 0 14 -4 19 -10l85 -106c5 -5 2 -10 -4 -10zM309 -11c-114 0 -196 54 -231 159c-13 39 -18 80 -18 192s5 153 18 192c35 105 117 159 231 159c115 0 197 -54 232 -159c13 -39 18 -80 18 -192
s-5 -153 -18 -192c-35 -105 -117 -159 -232 -159zM309 72c76 0 124 36 145 101c8 25 15 69 15 167s-7 142 -15 167c-21 65 -69 101 -145 101c-75 0 -123 -36 -144 -101c-8 -25 -15 -69 -15 -167s7 -142 15 -167c21 -65 69 -101 144 -101z" />
    <glyph glyph-name="Oacute" unicode="&#xd3;" horiz-adv-x="619" 
d="M317 762h-50c-6 0 -8 5 -4 10l86 106c5 6 9 10 18 10h70c6 0 9 -5 5 -10l-107 -107c-7 -8 -11 -9 -18 -9zM309 -11c-114 0 -196 54 -231 159c-13 39 -18 80 -18 192s5 153 18 192c35 105 117 159 231 159c115 0 197 -54 232 -159c13 -39 18 -80 18 -192s-5 -153 -18 -192
c-35 -105 -117 -159 -232 -159zM309 72c76 0 124 36 145 101c8 25 15 69 15 167s-7 142 -15 167c-21 65 -69 101 -145 101c-75 0 -123 -36 -144 -101c-8 -25 -15 -69 -15 -167s7 -142 15 -167c21 -65 69 -101 144 -101z" />
    <glyph glyph-name="Ocircumflex" unicode="&#xd4;" horiz-adv-x="619" 
d="M309 -11c-114 0 -196 54 -231 159c-13 39 -18 80 -18 192s5 153 18 192c35 105 117 159 231 159c115 0 197 -54 232 -159c13 -39 18 -80 18 -192s-5 -153 -18 -192c-35 -105 -117 -159 -232 -159zM309 72c76 0 124 36 145 101c8 25 15 69 15 167s-7 142 -15 167
c-21 65 -69 101 -145 101c-75 0 -123 -36 -144 -101c-8 -25 -15 -69 -15 -167s7 -142 15 -167c21 -65 69 -101 144 -101zM437 754h-45c-8 0 -12 2 -19 10l-63 70h-2l-64 -70c-7 -8 -10 -10 -19 -10h-45c-6 0 -8 5 -4 10l95 123c5 7 9 10 16 10h43c7 0 11 -3 16 -10l95 -123
c4 -5 2 -10 -4 -10z" />
    <glyph glyph-name="Otilde" unicode="&#xd5;" horiz-adv-x="619" 
d="M364 767c-24 0 -42 9 -63 21c-18 10 -33 18 -53 18c-26 0 -44 -15 -63 -32c-4 -4 -8 -2 -8 2v48c0 8 1 11 7 18c18 19 41 32 68 32c25 0 43 -9 63 -20c18 -11 33 -18 53 -18c26 0 44 14 63 32c4 4 8 2 8 -3v-48c0 -7 -1 -11 -7 -17c-18 -19 -41 -33 -68 -33zM309 -11
c-114 0 -196 54 -231 159c-13 39 -18 80 -18 192s5 153 18 192c35 105 117 159 231 159c115 0 197 -54 232 -159c13 -39 18 -80 18 -192s-5 -153 -18 -192c-35 -105 -117 -159 -232 -159zM309 72c76 0 124 36 145 101c8 25 15 69 15 167s-7 142 -15 167
c-21 65 -69 101 -145 101c-75 0 -123 -36 -144 -101c-8 -25 -15 -69 -15 -167s7 -142 15 -167c21 -65 69 -101 144 -101z" />
    <glyph glyph-name="Odieresis" unicode="&#xd6;" horiz-adv-x="619" 
d="M437 777h-56c-6 0 -10 4 -10 10v72c0 6 4 10 10 10h56c6 0 10 -4 10 -10v-72c0 -6 -4 -10 -10 -10zM237 777h-56c-6 0 -10 4 -10 10v72c0 6 4 10 10 10h56c6 0 10 -4 10 -10v-72c0 -6 -4 -10 -10 -10zM309 -11c-114 0 -196 54 -231 159c-13 39 -18 80 -18 192
s5 153 18 192c35 105 117 159 231 159c115 0 197 -54 232 -159c13 -39 18 -80 18 -192s-5 -153 -18 -192c-35 -105 -117 -159 -232 -159zM309 72c76 0 124 36 145 101c8 25 15 69 15 167s-7 142 -15 167c-21 65 -69 101 -145 101c-75 0 -123 -36 -144 -101
c-8 -25 -15 -69 -15 -167s7 -142 15 -167c21 -65 69 -101 144 -101z" />
    <glyph glyph-name="Omacron" unicode="&#x14c;" horiz-adv-x="619" 
d="M436 790h-255c-6 0 -10 4 -10 10v45c0 6 4 10 10 10h255c6 0 10 -4 10 -10v-45c0 -6 -4 -10 -10 -10zM309 -11c-114 0 -196 54 -231 159c-13 39 -18 80 -18 192s5 153 18 192c35 105 117 159 231 159c115 0 197 -54 232 -159c13 -39 18 -80 18 -192s-5 -153 -18 -192
c-35 -105 -117 -159 -232 -159zM309 72c76 0 124 36 145 101c8 25 15 69 15 167s-7 142 -15 167c-21 65 -69 101 -145 101c-75 0 -123 -36 -144 -101c-8 -25 -15 -69 -15 -167s7 -142 15 -167c21 -65 69 -101 144 -101z" />
    <glyph glyph-name="Obreve" unicode="&#x14e;" horiz-adv-x="619" 
d="M309 761c-78 0 -129 47 -136 113c0 6 3 10 9 10h36c6 0 9 -4 11 -10c11 -35 37 -52 80 -52c42 0 69 17 79 52c2 6 6 10 12 10h35c6 0 9 -4 9 -10c-7 -66 -58 -113 -135 -113zM309 -11c-114 0 -196 54 -231 159c-13 39 -18 80 -18 192s5 153 18 192
c35 105 117 159 231 159c115 0 197 -54 232 -159c13 -39 18 -80 18 -192s-5 -153 -18 -192c-35 -105 -117 -159 -232 -159zM309 72c76 0 124 36 145 101c8 25 15 69 15 167s-7 142 -15 167c-21 65 -69 101 -145 101c-75 0 -123 -36 -144 -101c-8 -25 -15 -69 -15 -167
s7 -142 15 -167c21 -65 69 -101 144 -101z" />
    <glyph glyph-name="Ohungarumlaut" unicode="&#x150;" horiz-adv-x="619" 
d="M309 -11c-114 0 -196 54 -231 159c-13 39 -18 80 -18 192s5 153 18 192c35 105 117 159 231 159c115 0 197 -54 232 -159c13 -39 18 -80 18 -192s-5 -153 -18 -192c-35 -105 -117 -159 -232 -159zM309 72c76 0 124 36 145 101c8 25 15 69 15 167s-7 142 -15 167
c-21 65 -69 101 -145 101c-75 0 -123 -36 -144 -101c-8 -25 -15 -69 -15 -167s7 -142 15 -167c21 -65 69 -101 144 -101zM393 764h-45c-6 0 -8 4 -4 10l66 105c4 7 8 10 16 10h57c6 0 8 -5 4 -10l-76 -106c-5 -7 -9 -9 -18 -9zM251 764h-45c-6 0 -8 4 -4 10l66 105
c4 7 8 10 16 10h57c6 0 8 -5 4 -10l-76 -106c-5 -7 -9 -9 -18 -9z" />
    <glyph glyph-name="Oslash" unicode="&#xd8;" horiz-adv-x="619" 
d="M116 -30h-45c-6 0 -9 5 -6 10l53 91c-17 21 -30 47 -40 77c-13 39 -18 80 -18 192s5 153 18 192c35 105 117 159 231 159c59 0 109 -14 149 -42l30 52c3 5 8 9 15 9h45c6 0 8 -5 5 -10l-53 -91c17 -22 31 -47 41 -77c13 -39 18 -80 18 -192s-5 -153 -18 -192
c-35 -105 -117 -159 -232 -159c-59 0 -109 14 -148 42l-30 -52c-3 -5 -8 -9 -15 -9zM150 340c0 -93 2 -141 20 -183l242 417c-26 22 -60 34 -103 34c-75 0 -123 -36 -144 -101c-8 -25 -15 -69 -15 -167zM309 72c76 0 124 36 145 101c8 25 15 69 15 167c0 107 -4 142 -21 182
l-242 -416c26 -22 60 -34 103 -34z" />
    <glyph glyph-name="Oslashacute" unicode="&#x1fe;" horiz-adv-x="619" 
d="M116 -30h-45c-6 0 -9 5 -6 10l53 91c-17 21 -30 47 -40 77c-13 39 -18 80 -18 192s5 153 18 192c35 105 117 159 231 159c59 0 109 -14 149 -42l30 52c3 5 8 9 15 9h45c6 0 8 -5 5 -10l-53 -91c17 -22 31 -47 41 -77c13 -39 18 -80 18 -192s-5 -153 -18 -192
c-35 -105 -117 -159 -232 -159c-59 0 -109 14 -148 42l-30 -52c-3 -5 -8 -9 -15 -9zM150 340c0 -93 2 -141 20 -183l242 417c-26 22 -60 34 -103 34c-75 0 -123 -36 -144 -101c-8 -25 -15 -69 -15 -167zM309 72c76 0 124 36 145 101c8 25 15 69 15 167c0 107 -4 142 -21 182
l-242 -416c26 -22 60 -34 103 -34zM317 762h-50c-6 0 -8 5 -4 10l86 106c5 6 9 10 18 10h70c6 0 9 -5 5 -10l-107 -107c-7 -8 -11 -9 -18 -9z" />
    <glyph glyph-name="OE" unicode="&#x152;" horiz-adv-x="948" 
d="M888 0h-409c-6 0 -10 4 -10 10v49h-1c-33 -46 -89 -70 -159 -70c-114 0 -197 54 -231 159c-12 39 -18 80 -18 192s6 153 18 192c34 105 117 159 231 159c70 0 126 -24 159 -70h1v49c0 6 4 10 10 10h409c6 0 10 -4 10 -10v-63c0 -6 -4 -10 -10 -10h-324c-4 0 -6 -2 -6 -6
v-200c0 -4 2 -6 6 -6h275c6 0 10 -4 10 -10v-63c0 -6 -4 -10 -10 -10h-275c-4 0 -6 -2 -6 -6v-207c0 -4 2 -6 6 -6h324c6 0 10 -4 10 -10v-63c0 -6 -4 -10 -10 -10zM309 72c76 0 124 36 145 101c8 25 15 69 15 167s-7 142 -15 167c-21 65 -69 101 -145 101
c-75 0 -123 -36 -144 -101c-8 -25 -15 -69 -15 -167s7 -142 15 -167c21 -65 69 -101 144 -101z" />
    <glyph glyph-name="Racute" unicode="&#x154;" horiz-adv-x="617" 
d="M558 0h-80c-7 0 -10 3 -13 10l-136 278h-150c-4 0 -6 -2 -6 -6v-272c0 -6 -4 -10 -10 -10h-69c-6 0 -10 4 -10 10v660c0 6 4 10 10 10h246c127 0 213 -78 213 -196c0 -92 -52 -159 -134 -185l145 -287c4 -6 1 -12 -6 -12zM338 371c79 0 126 42 126 113s-47 113 -126 113
h-159c-4 0 -6 -2 -6 -6v-214c0 -4 2 -6 6 -6h159zM292 762h-50c-6 0 -8 5 -4 10l86 106c5 6 9 10 18 10h70c6 0 9 -5 5 -10l-107 -107c-7 -8 -11 -9 -18 -9z" />
    <glyph glyph-name="Rcaron" unicode="&#x158;" horiz-adv-x="617" 
d="M309 752h-43c-7 0 -11 3 -16 10l-95 124c-4 5 -2 10 4 10h45c9 0 12 -2 19 -10l64 -71h2l63 71c7 8 11 10 19 10h45c6 0 8 -5 4 -10l-95 -124c-5 -7 -9 -10 -16 -10zM558 0h-80c-7 0 -10 3 -13 10l-136 278h-150c-4 0 -6 -2 -6 -6v-272c0 -6 -4 -10 -10 -10h-69
c-6 0 -10 4 -10 10v660c0 6 4 10 10 10h246c127 0 213 -78 213 -196c0 -92 -52 -159 -134 -185l145 -287c4 -6 1 -12 -6 -12zM338 371c79 0 126 42 126 113s-47 113 -126 113h-159c-4 0 -6 -2 -6 -6v-214c0 -4 2 -6 6 -6h159z" />
    <glyph glyph-name="Rcommaaccent" unicode="&#x156;" horiz-adv-x="617" 
d="M278 -213c-5 0 -9 4 -9 10v140c0 6 4 10 10 10h60c6 0 10 -4 10 -10v-61c0 -8 -1 -13 -6 -20l-51 -61c-4 -6 -9 -8 -14 -8zM558 0h-80c-7 0 -10 3 -13 10l-136 278h-150c-4 0 -6 -2 -6 -6v-272c0 -6 -4 -10 -10 -10h-69c-6 0 -10 4 -10 10v660c0 6 4 10 10 10h246
c127 0 213 -78 213 -196c0 -92 -52 -159 -134 -185l145 -287c4 -6 1 -12 -6 -12zM338 371c79 0 126 42 126 113s-47 113 -126 113h-159c-4 0 -6 -2 -6 -6v-214c0 -4 2 -6 6 -6h159z" />
    <glyph glyph-name="Sacute" unicode="&#x15a;" horiz-adv-x="591" 
d="M290 -11c-96 0 -189 39 -239 85c-4 4 -5 10 -1 15l44 52c4 5 9 5 14 1c44 -35 112 -70 190 -70c94 0 150 47 150 116c0 58 -33 97 -142 111l-34 5c-132 18 -200 81 -200 188c0 121 87 199 222 199c80 0 157 -26 207 -63c5 -4 6 -9 2 -14l-34 -55c-4 -5 -9 -5 -14 -2
c-55 34 -106 51 -164 51c-83 0 -129 -45 -129 -110c0 -57 38 -95 143 -109l33 -5c133 -18 200 -79 200 -190c0 -119 -84 -205 -248 -205zM305 762h-50c-6 0 -8 5 -4 10l86 106c5 6 9 10 18 10h70c6 0 9 -5 5 -10l-107 -107c-7 -8 -11 -9 -18 -9z" />
    <glyph glyph-name="Scircumflex" unicode="&#x15c;" horiz-adv-x="591" 
d="M290 -11c-96 0 -189 39 -239 85c-4 4 -5 10 -1 15l44 52c4 5 9 5 14 1c44 -35 112 -70 190 -70c94 0 150 47 150 116c0 58 -33 97 -142 111l-34 5c-132 18 -200 81 -200 188c0 121 87 199 222 199c80 0 157 -26 207 -63c5 -4 6 -9 2 -14l-34 -55c-4 -5 -9 -5 -14 -2
c-55 34 -106 51 -164 51c-83 0 -129 -45 -129 -110c0 -57 38 -95 143 -109l33 -5c133 -18 200 -79 200 -190c0 -119 -84 -205 -248 -205zM424 754h-45c-8 0 -12 2 -19 10l-63 70h-2l-64 -70c-7 -8 -10 -10 -19 -10h-45c-6 0 -8 5 -4 10l95 123c5 7 9 10 16 10h43
c7 0 11 -3 16 -10l95 -123c4 -5 2 -10 -4 -10z" />
    <glyph glyph-name="Scaron" unicode="&#x160;" horiz-adv-x="591" 
d="M290 -11c-96 0 -189 39 -239 85c-4 4 -5 10 -1 15l44 52c4 5 9 5 14 1c44 -35 112 -70 190 -70c94 0 150 47 150 116c0 58 -33 97 -142 111l-34 5c-132 18 -200 81 -200 188c0 121 87 199 222 199c80 0 157 -26 207 -63c5 -4 6 -9 2 -14l-34 -55c-4 -5 -9 -5 -14 -2
c-55 34 -106 51 -164 51c-83 0 -129 -45 -129 -110c0 -57 38 -95 143 -109l33 -5c133 -18 200 -79 200 -190c0 -119 -84 -205 -248 -205zM319 751h-43c-7 0 -11 3 -16 10l-95 124c-4 5 -2 10 4 10h45c9 0 12 -2 19 -10l64 -71h2l63 71c7 8 11 10 19 10h45c6 0 8 -5 4 -10
l-95 -124c-5 -7 -9 -10 -16 -10z" />
    <glyph glyph-name="Scedilla" unicode="&#x15e;" horiz-adv-x="591" 
d="M275 -152h-55c-6 0 -9 4 -7 10l53 132c-85 5 -169 41 -215 84c-4 4 -5 10 -1 15l44 52c4 5 9 5 14 1c44 -35 112 -70 190 -70c94 0 150 47 150 116c0 58 -33 97 -142 111l-34 5c-132 18 -200 81 -200 188c0 121 87 199 222 199c80 0 157 -26 207 -63c5 -4 6 -9 2 -14
l-34 -55c-4 -5 -9 -5 -14 -2c-55 34 -106 51 -164 51c-83 0 -129 -45 -129 -110c0 -57 38 -95 143 -109l33 -5c133 -18 200 -79 200 -190c0 -107 -68 -188 -204 -202l-43 -134c-2 -7 -7 -10 -16 -10z" />
    <glyph glyph-name="Scommaaccent" unicode="&#x218;" horiz-adv-x="591" 
d="M264 -213c-5 0 -9 4 -9 10v140c0 6 4 10 10 10h60c6 0 10 -4 10 -10v-61c0 -8 -1 -13 -6 -20l-51 -61c-4 -6 -9 -8 -14 -8zM290 -11c-96 0 -189 39 -239 85c-4 4 -5 10 -1 15l44 52c4 5 9 5 14 1c44 -35 112 -70 190 -70c94 0 150 47 150 116c0 58 -33 97 -142 111l-34 5
c-132 18 -200 81 -200 188c0 121 87 199 222 199c80 0 157 -26 207 -63c5 -4 6 -9 2 -14l-34 -55c-4 -5 -9 -5 -14 -2c-55 34 -106 51 -164 51c-83 0 -129 -45 -129 -110c0 -57 38 -95 143 -109l33 -5c133 -18 200 -79 200 -190c0 -119 -84 -205 -248 -205z" />
    <glyph glyph-name="Tcaron" unicode="&#x164;" horiz-adv-x="537" 
d="M289 752h-43c-7 0 -11 3 -16 10l-95 124c-4 5 -2 10 4 10h45c9 0 12 -2 19 -10l64 -71h2l63 71c7 8 11 10 19 10h45c6 0 8 -5 4 -10l-95 -124c-5 -7 -9 -10 -16 -10zM303 0h-69c-6 0 -10 4 -10 10v581c0 4 -2 6 -6 6h-186c-6 0 -10 4 -10 10v63c0 6 4 10 10 10h473
c6 0 10 -4 10 -10v-63c0 -6 -4 -10 -10 -10h-186c-4 0 -6 -2 -6 -6v-581c0 -6 -4 -10 -10 -10z" />
    <glyph glyph-name="Tcommaaccent" unicode="&#x162;" horiz-adv-x="537" 
d="M237 -213c-5 0 -9 4 -9 10v140c0 6 4 10 10 10h60c6 0 10 -4 10 -10v-61c0 -8 -1 -13 -6 -20l-51 -61c-4 -6 -9 -8 -14 -8zM303 0h-69c-6 0 -10 4 -10 10v581c0 4 -2 6 -6 6h-186c-6 0 -10 4 -10 10v63c0 6 4 10 10 10h473c6 0 10 -4 10 -10v-63c0 -6 -4 -10 -10 -10
h-186c-4 0 -6 -2 -6 -6v-581c0 -6 -4 -10 -10 -10z" />
    <glyph glyph-name="uni021A" unicode="&#x21a;" horiz-adv-x="537" 
d="M237 -213c-5 0 -9 4 -9 10v140c0 6 4 10 10 10h60c6 0 10 -4 10 -10v-61c0 -8 -1 -13 -6 -20l-51 -61c-4 -6 -9 -8 -14 -8zM303 0h-69c-6 0 -10 4 -10 10v581c0 4 -2 6 -6 6h-186c-6 0 -10 4 -10 10v63c0 6 4 10 10 10h473c6 0 10 -4 10 -10v-63c0 -6 -4 -10 -10 -10
h-186c-4 0 -6 -2 -6 -6v-581c0 -6 -4 -10 -10 -10z" />
    <glyph glyph-name="Tbar" unicode="&#x166;" horiz-adv-x="537" 
d="M303 0h-69c-6 0 -10 4 -10 10v347c0 4 -2 6 -6 6h-102c-6 0 -10 4 -10 10v59c0 6 4 10 10 10h102c4 0 6 2 6 6v143c0 4 -2 6 -6 6h-186c-6 0 -10 4 -10 10v63c0 6 4 10 10 10h473c6 0 10 -4 10 -10v-63c0 -6 -4 -10 -10 -10h-186c-4 0 -6 -2 -6 -6v-143c0 -4 2 -6 6 -6
h102c6 0 10 -4 10 -10v-59c0 -6 -4 -10 -10 -10h-102c-4 0 -6 -2 -6 -6v-347c0 -6 -4 -10 -10 -10z" />
    <glyph glyph-name="Thorn" unicode="&#xde;" horiz-adv-x="592" 
d="M163 0h-69c-6 0 -10 4 -10 10v660c0 6 4 10 10 10h69c6 0 10 -4 10 -10v-110c0 -4 2 -6 6 -6h157c131 0 216 -80 216 -203s-85 -203 -216 -203h-157c-4 0 -6 -2 -6 -6v-132c0 -6 -4 -10 -10 -10zM331 231c84 0 133 46 133 120s-49 120 -133 120h-152c-4 0 -6 -2 -6 -6
v-228c0 -4 2 -6 6 -6h152z" />
    <glyph glyph-name="Ugrave" unicode="&#xd9;" horiz-adv-x="639" 
d="M359 762h-49c-8 0 -11 1 -18 9l-107 107c-5 5 -2 10 4 10h70c9 0 14 -4 19 -10l85 -106c5 -5 2 -10 -4 -10zM320 -11c-150 0 -241 88 -241 248v433c0 6 4 10 10 10h69c6 0 10 -4 10 -10v-432c0 -110 61 -166 152 -166c90 0 151 56 151 166v432c0 6 4 10 10 10h69
c6 0 10 -4 10 -10v-433c0 -160 -91 -248 -240 -248z" />
    <glyph glyph-name="Uacute" unicode="&#xda;" horiz-adv-x="639" 
d="M329 762h-50c-6 0 -8 5 -4 10l86 106c5 6 9 10 18 10h70c6 0 9 -5 5 -10l-107 -107c-7 -8 -11 -9 -18 -9zM320 -11c-150 0 -241 88 -241 248v433c0 6 4 10 10 10h69c6 0 10 -4 10 -10v-432c0 -110 61 -166 152 -166c90 0 151 56 151 166v432c0 6 4 10 10 10h69
c6 0 10 -4 10 -10v-433c0 -160 -91 -248 -240 -248z" />
    <glyph glyph-name="Ucircumflex" unicode="&#xdb;" horiz-adv-x="639" 
d="M320 -11c-150 0 -241 88 -241 248v433c0 6 4 10 10 10h69c6 0 10 -4 10 -10v-432c0 -110 61 -166 152 -166c90 0 151 56 151 166v432c0 6 4 10 10 10h69c6 0 10 -4 10 -10v-433c0 -160 -91 -248 -240 -248zM447 754h-45c-8 0 -12 2 -19 10l-63 70h-2l-64 -70
c-7 -8 -10 -10 -19 -10h-45c-6 0 -8 5 -4 10l95 123c5 7 9 10 16 10h43c7 0 11 -3 16 -10l95 -123c4 -5 2 -10 -4 -10z" />
    <glyph glyph-name="Utilde" unicode="&#x168;" horiz-adv-x="639" 
d="M375 767c-24 0 -42 9 -63 21c-18 10 -33 18 -53 18c-26 0 -44 -15 -63 -32c-4 -4 -8 -2 -8 2v48c0 8 1 11 7 18c18 19 41 32 68 32c25 0 43 -9 63 -20c18 -11 33 -18 53 -18c26 0 44 14 63 32c4 4 8 2 8 -3v-48c0 -7 -1 -11 -7 -17c-18 -19 -41 -33 -68 -33zM320 -11
c-150 0 -241 88 -241 248v433c0 6 4 10 10 10h69c6 0 10 -4 10 -10v-432c0 -110 61 -166 152 -166c90 0 151 56 151 166v432c0 6 4 10 10 10h69c6 0 10 -4 10 -10v-433c0 -160 -91 -248 -240 -248z" />
    <glyph glyph-name="Udieresis" unicode="&#xdc;" horiz-adv-x="639" 
d="M447 777h-56c-6 0 -10 4 -10 10v72c0 6 4 10 10 10h56c6 0 10 -4 10 -10v-72c0 -6 -4 -10 -10 -10zM247 777h-56c-6 0 -10 4 -10 10v72c0 6 4 10 10 10h56c6 0 10 -4 10 -10v-72c0 -6 -4 -10 -10 -10zM320 -11c-150 0 -241 88 -241 248v433c0 6 4 10 10 10h69
c6 0 10 -4 10 -10v-432c0 -110 61 -166 152 -166c90 0 151 56 151 166v432c0 6 4 10 10 10h69c6 0 10 -4 10 -10v-433c0 -160 -91 -248 -240 -248z" />
    <glyph glyph-name="Umacron" unicode="&#x16a;" horiz-adv-x="639" 
d="M447 790h-255c-6 0 -10 4 -10 10v45c0 6 4 10 10 10h255c6 0 10 -4 10 -10v-45c0 -6 -4 -10 -10 -10zM320 -11c-150 0 -241 88 -241 248v433c0 6 4 10 10 10h69c6 0 10 -4 10 -10v-432c0 -110 61 -166 152 -166c90 0 151 56 151 166v432c0 6 4 10 10 10h69
c6 0 10 -4 10 -10v-433c0 -160 -91 -248 -240 -248z" />
    <glyph glyph-name="Ubreve" unicode="&#x16c;" horiz-adv-x="639" 
d="M319 761c-78 0 -129 47 -136 113c0 6 3 10 9 10h36c6 0 9 -4 11 -10c11 -35 37 -52 80 -52c42 0 69 17 79 52c2 6 6 10 12 10h35c6 0 9 -4 9 -10c-7 -66 -58 -113 -135 -113zM320 -11c-150 0 -241 88 -241 248v433c0 6 4 10 10 10h69c6 0 10 -4 10 -10v-432
c0 -110 61 -166 152 -166c90 0 151 56 151 166v432c0 6 4 10 10 10h69c6 0 10 -4 10 -10v-433c0 -160 -91 -248 -240 -248z" />
    <glyph glyph-name="Uring" unicode="&#x16e;" horiz-adv-x="639" 
d="M320 -11c-150 0 -241 88 -241 248v433c0 6 4 10 10 10h69c6 0 10 -4 10 -10v-432c0 -110 61 -166 152 -166c90 0 151 56 151 166v432c0 6 4 10 10 10h69c6 0 10 -4 10 -10v-433c0 -160 -91 -248 -240 -248zM319 729c-53 0 -95 40 -95 94s42 94 95 94s95 -40 95 -94
s-42 -94 -95 -94zM319 770c29 0 51 23 51 53s-22 53 -51 53s-51 -23 -51 -53s22 -53 51 -53z" />
    <glyph glyph-name="Uhungarumlaut" unicode="&#x170;" horiz-adv-x="639" 
d="M320 -11c-150 0 -241 88 -241 248v433c0 6 4 10 10 10h69c6 0 10 -4 10 -10v-432c0 -110 61 -166 152 -166c90 0 151 56 151 166v432c0 6 4 10 10 10h69c6 0 10 -4 10 -10v-433c0 -160 -91 -248 -240 -248zM406 764h-45c-6 0 -8 4 -4 10l66 105c4 7 8 10 16 10h57
c6 0 8 -5 4 -10l-76 -106c-5 -7 -9 -9 -18 -9zM264 764h-45c-6 0 -8 4 -4 10l66 105c4 7 8 10 16 10h57c6 0 8 -5 4 -10l-76 -106c-5 -7 -9 -9 -18 -9z" />
    <glyph glyph-name="Uogonek" unicode="&#x172;" horiz-adv-x="639" 
d="M560 237c0 -140 -70 -225 -187 -244c-46 -42 -57 -62 -57 -82c0 -17 10 -27 27 -27c9 0 17 3 27 8c5 3 10 2 13 -4l17 -35c3 -5 2 -10 -3 -14c-17 -12 -44 -21 -68 -21c-49 0 -83 28 -83 79c0 31 14 58 47 93c-134 10 -214 97 -214 247v433c0 6 4 10 10 10h69
c6 0 10 -4 10 -10v-432c0 -110 61 -166 152 -166c90 0 151 56 151 166v432c0 6 4 10 10 10h69c6 0 10 -4 10 -10v-433z" />
    <glyph glyph-name="Wacute" unicode="&#x1e82;" horiz-adv-x="823" 
d="M437 762h-50c-6 0 -8 5 -4 10l86 106c5 6 9 10 18 10h70c6 0 9 -5 5 -10l-107 -107c-7 -8 -11 -9 -18 -9zM623 0h-55c-6 0 -9 4 -11 10l-145 507h-2l-144 -507c-2 -6 -6 -10 -12 -10h-55c-6 0 -10 4 -11 10l-164 660c-2 6 1 10 8 10h66c7 0 11 -3 12 -10l121 -505h2
l141 505c2 6 6 10 12 10h51c7 0 10 -4 12 -10l144 -505h2l118 505c2 7 6 10 13 10h65c7 0 9 -4 8 -10l-164 -660c-1 -6 -6 -10 -12 -10z" />
    <glyph glyph-name="Wcircumflex" unicode="&#x174;" horiz-adv-x="823" 
d="M623 0h-55c-6 0 -9 4 -11 10l-145 507h-2l-144 -507c-2 -6 -6 -10 -12 -10h-55c-6 0 -10 4 -11 10l-164 660c-2 6 1 10 8 10h66c7 0 11 -3 12 -10l121 -505h2l141 505c2 6 6 10 12 10h51c7 0 10 -4 12 -10l144 -505h2l118 505c2 7 6 10 13 10h65c7 0 9 -4 8 -10
l-164 -660c-1 -6 -6 -10 -12 -10zM539 754h-45c-8 0 -12 2 -19 10l-63 70h-2l-64 -70c-7 -8 -10 -10 -19 -10h-45c-6 0 -8 5 -4 10l95 123c5 7 9 10 16 10h43c7 0 11 -3 16 -10l95 -123c4 -5 2 -10 -4 -10z" />
    <glyph glyph-name="Wdieresis" unicode="&#x1e84;" horiz-adv-x="823" 
d="M538 777h-56c-6 0 -10 4 -10 10v72c0 6 4 10 10 10h56c6 0 10 -4 10 -10v-72c0 -6 -4 -10 -10 -10zM338 777h-56c-6 0 -10 4 -10 10v72c0 6 4 10 10 10h56c6 0 10 -4 10 -10v-72c0 -6 -4 -10 -10 -10zM623 0h-55c-6 0 -9 4 -11 10l-145 507h-2l-144 -507
c-2 -6 -6 -10 -12 -10h-55c-6 0 -10 4 -11 10l-164 660c-2 6 1 10 8 10h66c7 0 11 -3 12 -10l121 -505h2l141 505c2 6 6 10 12 10h51c7 0 10 -4 12 -10l144 -505h2l118 505c2 7 6 10 13 10h65c7 0 9 -4 8 -10l-164 -660c-1 -6 -6 -10 -12 -10z" />
    <glyph glyph-name="Wgrave" unicode="&#x1e80;" horiz-adv-x="823" 
d="M434 762h-49c-8 0 -11 1 -18 9l-107 107c-5 5 -2 10 4 10h70c9 0 14 -4 19 -10l85 -106c5 -5 2 -10 -4 -10zM623 0h-55c-6 0 -9 4 -11 10l-145 507h-2l-144 -507c-2 -6 -6 -10 -12 -10h-55c-6 0 -10 4 -11 10l-164 660c-2 6 1 10 8 10h66c7 0 11 -3 12 -10l121 -505h2
l141 505c2 6 6 10 12 10h51c7 0 10 -4 12 -10l144 -505h2l118 505c2 7 6 10 13 10h65c7 0 9 -4 8 -10l-164 -660c-1 -6 -6 -10 -12 -10z" />
    <glyph glyph-name="Yacute" unicode="&#xdd;" horiz-adv-x="526" 
d="M297 0h-68c-6 0 -10 4 -10 10v268l-201 391c-2 6 1 11 8 11h71c7 0 11 -3 15 -10l152 -291h2l151 291c3 7 7 10 14 10h69c8 0 10 -5 8 -11l-201 -391v-268c0 -6 -4 -10 -10 -10zM280 762h-50c-6 0 -8 5 -4 10l86 106c5 6 9 10 18 10h70c6 0 9 -5 5 -10l-107 -107
c-7 -8 -11 -9 -18 -9z" />
    <glyph glyph-name="Ycircumflex" unicode="&#x176;" horiz-adv-x="526" 
d="M297 0h-68c-6 0 -10 4 -10 10v268l-201 391c-2 6 1 11 8 11h71c7 0 11 -3 15 -10l152 -291h2l151 291c3 7 7 10 14 10h69c8 0 10 -5 8 -11l-201 -391v-268c0 -6 -4 -10 -10 -10zM390 754h-45c-8 0 -12 2 -19 10l-63 70h-2l-64 -70c-7 -8 -10 -10 -19 -10h-45
c-6 0 -8 5 -4 10l95 123c5 7 9 10 16 10h43c7 0 11 -3 16 -10l95 -123c4 -5 2 -10 -4 -10z" />
    <glyph glyph-name="Ydieresis" unicode="&#x178;" horiz-adv-x="526" 
d="M297 0h-68c-6 0 -10 4 -10 10v268l-201 391c-2 6 1 11 8 11h71c7 0 11 -3 15 -10l152 -291h2l151 291c3 7 7 10 14 10h69c8 0 10 -5 8 -11l-201 -391v-268c0 -6 -4 -10 -10 -10zM390 777h-56c-6 0 -10 4 -10 10v72c0 6 4 10 10 10h56c6 0 10 -4 10 -10v-72
c0 -6 -4 -10 -10 -10zM190 777h-56c-6 0 -10 4 -10 10v72c0 6 4 10 10 10h56c6 0 10 -4 10 -10v-72c0 -6 -4 -10 -10 -10z" />
    <glyph glyph-name="Ygrave" unicode="&#x1ef2;" horiz-adv-x="526" 
d="M297 0h-68c-6 0 -10 4 -10 10v268l-201 391c-2 6 1 11 8 11h71c7 0 11 -3 15 -10l152 -291h2l151 291c3 7 7 10 14 10h69c8 0 10 -5 8 -11l-201 -391v-268c0 -6 -4 -10 -10 -10zM298 762h-49c-8 0 -11 1 -18 9l-107 107c-5 5 -2 10 4 10h70c9 0 14 -4 19 -10l85 -106
c5 -5 2 -10 -4 -10z" />
    <glyph glyph-name="Zacute" unicode="&#x179;" horiz-adv-x="536" 
d="M477 0h-418c-6 0 -10 4 -10 10v63c0 4 1 7 4 11l332 512v1h-314c-6 0 -10 4 -10 10v63c0 6 4 10 10 10h406c6 0 10 -4 10 -10v-63c0 -4 -1 -7 -4 -11l-333 -512v-1h327c6 0 10 -4 10 -10v-63c0 -6 -4 -10 -10 -10zM275 762h-50c-6 0 -8 5 -4 10l86 106c5 6 9 10 18 10h70
c6 0 9 -5 5 -10l-107 -107c-7 -8 -11 -9 -18 -9z" />
    <glyph glyph-name="Zcaron" unicode="&#x17d;" horiz-adv-x="536" 
d="M292 752h-43c-7 0 -11 3 -16 10l-95 124c-4 5 -2 10 4 10h45c9 0 12 -2 19 -10l64 -71h2l63 71c7 8 11 10 19 10h45c6 0 8 -5 4 -10l-95 -124c-5 -7 -9 -10 -16 -10zM477 0h-418c-6 0 -10 4 -10 10v63c0 4 1 7 4 11l332 512v1h-314c-6 0 -10 4 -10 10v63c0 6 4 10 10 10
h406c6 0 10 -4 10 -10v-63c0 -4 -1 -7 -4 -11l-333 -512v-1h327c6 0 10 -4 10 -10v-63c0 -6 -4 -10 -10 -10z" />
    <glyph glyph-name="Zdotaccent" unicode="&#x17b;" horiz-adv-x="536" 
d="M305 777h-69c-6 0 -10 4 -10 10v72c0 6 4 10 10 10h69c6 0 10 -4 10 -10v-72c0 -6 -4 -10 -10 -10zM477 0h-418c-6 0 -10 4 -10 10v63c0 4 1 7 4 11l332 512v1h-314c-6 0 -10 4 -10 10v63c0 6 4 10 10 10h406c6 0 10 -4 10 -10v-63c0 -4 -1 -7 -4 -11l-333 -512v-1h327
c6 0 10 -4 10 -10v-63c0 -6 -4 -10 -10 -10z" />
    <glyph glyph-name="agrave" unicode="&#xe0;" horiz-adv-x="519" 
d="M431 0h-59c-6 0 -10 4 -10 10v42h-1c-22 -36 -69 -63 -142 -63c-91 0 -161 47 -161 144c0 101 70 148 187 148h109c4 0 6 2 6 6v35c0 66 -26 94 -115 94c-54 0 -88 -14 -116 -34c-5 -4 -11 -4 -14 1l-27 46c-3 6 -2 10 2 14c36 28 92 47 163 47c136 0 188 -45 188 -163
v-317c0 -6 -4 -10 -10 -10zM239 61c75 0 121 35 121 94v53c0 4 -2 6 -6 6h-96c-83 0 -119 -24 -119 -78c0 -49 36 -75 100 -75zM316 557h-47c-9 0 -13 2 -19 10l-92 123c-4 5 -1 10 5 10h66c8 0 14 -3 18 -10l75 -123c3 -6 0 -10 -6 -10z" />
    <glyph glyph-name="aacute" unicode="&#xe1;" horiz-adv-x="519" 
d="M431 0h-59c-6 0 -10 4 -10 10v42h-1c-22 -36 -69 -63 -142 -63c-91 0 -161 47 -161 144c0 101 70 148 187 148h109c4 0 6 2 6 6v35c0 66 -26 94 -115 94c-54 0 -88 -14 -116 -34c-5 -4 -11 -4 -14 1l-27 46c-3 6 -2 10 2 14c36 28 92 47 163 47c136 0 188 -45 188 -163
v-317c0 -6 -4 -10 -10 -10zM239 61c75 0 121 35 121 94v53c0 4 -2 6 -6 6h-96c-83 0 -119 -24 -119 -78c0 -49 36 -75 100 -75zM272 557h-47c-6 0 -9 4 -6 10l76 123c4 7 9 10 17 10h66c6 0 9 -5 5 -10l-92 -123c-6 -8 -10 -10 -19 -10z" />
    <glyph glyph-name="acircumflex" unicode="&#xe2;" horiz-adv-x="519" 
d="M431 0h-59c-6 0 -10 4 -10 10v42h-1c-22 -36 -69 -63 -142 -63c-91 0 -161 47 -161 144c0 101 70 148 187 148h109c4 0 6 2 6 6v35c0 66 -26 94 -115 94c-54 0 -88 -14 -116 -34c-5 -4 -11 -4 -14 1l-27 46c-3 6 -2 10 2 14c36 28 92 47 163 47c136 0 188 -45 188 -163
v-317c0 -6 -4 -10 -10 -10zM239 61c75 0 121 35 121 94v53c0 4 -2 6 -6 6h-96c-83 0 -119 -24 -119 -78c0 -49 36 -75 100 -75zM387 557h-45c-8 0 -12 2 -19 10l-63 70h-2l-64 -70c-7 -8 -10 -10 -19 -10h-45c-6 0 -8 5 -4 10l95 123c5 7 9 10 16 10h43c7 0 11 -3 16 -10
l95 -123c4 -5 2 -10 -4 -10z" />
    <glyph glyph-name="atilde" unicode="&#xe3;" horiz-adv-x="519" 
d="M431 0h-59c-6 0 -10 4 -10 10v42h-1c-22 -36 -69 -63 -142 -63c-91 0 -161 47 -161 144c0 101 70 148 187 148h109c4 0 6 2 6 6v35c0 66 -26 94 -115 94c-54 0 -88 -14 -116 -34c-5 -4 -11 -4 -14 1l-27 46c-3 6 -2 10 2 14c36 28 92 47 163 47c136 0 188 -45 188 -163
v-317c0 -6 -4 -10 -10 -10zM239 61c75 0 121 35 121 94v53c0 4 -2 6 -6 6h-96c-83 0 -119 -24 -119 -78c0 -49 36 -75 100 -75zM314 576c-24 0 -42 9 -63 21c-18 10 -33 18 -53 18c-26 0 -44 -15 -63 -32c-4 -4 -8 -2 -8 2v48c0 7 1 11 7 18c18 18 41 32 68 32
c25 0 43 -9 63 -21c18 -10 33 -18 53 -18c26 0 44 15 63 32c4 4 8 2 8 -2v-48c0 -7 -1 -11 -7 -18c-18 -18 -41 -32 -68 -32z" />
    <glyph glyph-name="adieresis" unicode="&#xe4;" horiz-adv-x="519" 
d="M431 0h-59c-6 0 -10 4 -10 10v42h-1c-22 -36 -69 -63 -142 -63c-91 0 -161 47 -161 144c0 101 70 148 187 148h109c4 0 6 2 6 6v35c0 66 -26 94 -115 94c-54 0 -88 -14 -116 -34c-5 -4 -11 -4 -14 1l-27 46c-3 6 -2 10 2 14c36 28 92 47 163 47c136 0 188 -45 188 -163
v-317c0 -6 -4 -10 -10 -10zM239 61c75 0 121 35 121 94v53c0 4 -2 6 -6 6h-96c-83 0 -119 -24 -119 -78c0 -49 36 -75 100 -75zM386 587h-59c-6 0 -10 4 -10 10v73c0 6 4 10 10 10h59c6 0 10 -4 10 -10v-73c0 -6 -4 -10 -10 -10zM189 587h-59c-6 0 -10 4 -10 10v73
c0 6 4 10 10 10h59c6 0 10 -4 10 -10v-73c0 -6 -4 -10 -10 -10z" />
    <glyph glyph-name="amacron" unicode="&#x101;" horiz-adv-x="519" 
d="M431 0h-59c-6 0 -10 4 -10 10v42h-1c-22 -36 -69 -63 -142 -63c-91 0 -161 47 -161 144c0 101 70 148 187 148h109c4 0 6 2 6 6v35c0 66 -26 94 -115 94c-54 0 -88 -14 -116 -34c-5 -4 -11 -4 -14 1l-27 46c-3 6 -2 10 2 14c36 28 92 47 163 47c136 0 188 -45 188 -163
v-317c0 -6 -4 -10 -10 -10zM239 61c75 0 121 35 121 94v53c0 4 -2 6 -6 6h-96c-83 0 -119 -24 -119 -78c0 -49 36 -75 100 -75zM386 601h-255c-6 0 -10 4 -10 10v45c0 6 4 10 10 10h255c6 0 10 -4 10 -10v-45c0 -6 -4 -10 -10 -10z" />
    <glyph glyph-name="abreve" unicode="&#x103;" horiz-adv-x="519" 
d="M431 0h-59c-6 0 -10 4 -10 10v42h-1c-22 -36 -69 -63 -142 -63c-91 0 -161 47 -161 144c0 101 70 148 187 148h109c4 0 6 2 6 6v35c0 66 -26 94 -115 94c-54 0 -88 -14 -116 -34c-5 -4 -11 -4 -14 1l-27 46c-3 6 -2 10 2 14c36 28 92 47 163 47c136 0 188 -45 188 -163
v-317c0 -6 -4 -10 -10 -10zM239 61c75 0 121 35 121 94v53c0 4 -2 6 -6 6h-96c-83 0 -119 -24 -119 -78c0 -49 36 -75 100 -75zM259 561c-78 0 -129 47 -136 113c0 6 3 10 9 10h36c6 0 9 -3 11 -10c11 -34 37 -52 80 -52c42 0 69 18 79 52c2 7 6 10 12 10h35c6 0 9 -4 9 -10
c-7 -66 -58 -113 -135 -113z" />
    <glyph glyph-name="aring" unicode="&#xe5;" horiz-adv-x="519" 
d="M431 0h-59c-6 0 -10 4 -10 10v42h-1c-22 -36 -69 -63 -142 -63c-91 0 -161 47 -161 144c0 101 70 148 187 148h109c4 0 6 2 6 6v35c0 66 -26 94 -115 94c-54 0 -88 -14 -116 -34c-5 -4 -11 -4 -14 1l-27 46c-3 6 -2 10 2 14c36 28 92 47 163 47c136 0 188 -45 188 -163
v-317c0 -6 -4 -10 -10 -10zM239 61c75 0 121 35 121 94v53c0 4 -2 6 -6 6h-96c-83 0 -119 -24 -119 -78c0 -49 36 -75 100 -75zM263 535c-53 0 -95 40 -95 94s42 94 95 94s95 -40 95 -94s-42 -94 -95 -94zM263 576c29 0 51 23 51 53s-22 53 -51 53s-51 -23 -51 -53
s22 -53 51 -53z" />
    <glyph glyph-name="aringacute" unicode="&#x1fb;" horiz-adv-x="519" 
d="M287 766h-51c-6 0 -8 5 -4 10l84 102c6 7 10 10 19 10h70c6 0 8 -6 4 -10l-103 -103c-7 -7 -11 -9 -19 -9zM431 0h-59c-6 0 -10 4 -10 10v42h-1c-22 -36 -69 -63 -142 -63c-91 0 -161 47 -161 144c0 101 70 148 187 148h109c4 0 6 2 6 6v35c0 66 -26 94 -115 94
c-54 0 -88 -14 -116 -34c-5 -4 -11 -4 -14 1l-27 46c-3 6 -2 10 2 14c36 28 92 47 163 47c136 0 188 -45 188 -163v-317c0 -6 -4 -10 -10 -10zM239 61c75 0 121 35 121 94v53c0 4 -2 6 -6 6h-96c-83 0 -119 -24 -119 -78c0 -49 36 -75 100 -75zM263 535c-53 0 -95 40 -95 94
s42 94 95 94s95 -40 95 -94s-42 -94 -95 -94zM263 576c29 0 51 23 51 53s-22 53 -51 53s-51 -23 -51 -53s22 -53 51 -53z" />
    <glyph glyph-name="aogonek" unicode="&#x105;" horiz-adv-x="519" 
d="M245 416c-54 0 -88 -14 -116 -34c-5 -4 -11 -4 -14 1l-27 46c-3 6 -2 10 2 14c36 28 92 47 163 47c136 0 188 -45 188 -163v-317c0 -6 -1 -8 -5 -10c-68 -43 -85 -66 -85 -89c0 -17 10 -27 27 -27c9 0 17 3 27 8c5 3 10 2 13 -4l17 -35c3 -5 1 -10 -4 -14
c-16 -12 -43 -21 -67 -21c-49 0 -83 28 -83 79c0 39 22 73 81 111v44h-1c-22 -36 -69 -63 -142 -63c-91 0 -161 47 -161 144c0 101 70 148 187 148h109c4 0 6 2 6 6v35c0 66 -26 94 -115 94zM239 61c75 0 121 35 121 94v53c0 4 -2 6 -6 6h-96c-83 0 -119 -24 -119 -78
c0 -49 36 -75 100 -75z" />
    <glyph glyph-name="ae" unicode="&#xe6;" horiz-adv-x="814" 
d="M563 -11c-81 0 -135 35 -166 84h-1c-28 -56 -89 -84 -177 -84c-91 0 -161 47 -161 144c0 101 70 148 187 148h109c4 0 6 2 6 6v35c0 66 -26 94 -115 94c-54 0 -88 -14 -116 -34c-5 -4 -11 -4 -14 1l-27 46c-3 6 -2 10 2 14c36 28 92 47 163 47c79 0 136 -19 159 -64h2
c31 42 83 64 144 64c93 0 161 -47 188 -129c10 -31 15 -64 15 -137c0 -6 -4 -10 -11 -10h-303c-4 0 -6 -2 -6 -6c0 -26 3 -42 8 -58c19 -55 62 -83 121 -83c57 0 97 23 123 53c5 5 10 6 15 2l41 -37c5 -4 5 -9 1 -14c-38 -48 -103 -82 -187 -82zM669 281c4 0 6 2 6 6
c0 22 -2 39 -7 54c-16 48 -56 75 -110 75s-94 -27 -110 -75c-5 -15 -7 -32 -7 -54c0 -4 2 -6 6 -6h222zM239 61c75 0 121 35 121 94v53c0 4 -2 6 -6 6h-96c-83 0 -119 -24 -119 -78c0 -49 36 -75 100 -75z" />
    <glyph glyph-name="aeacute" unicode="&#x1fd;" horiz-adv-x="814" 
d="M432 557h-47c-6 0 -9 4 -6 10l76 123c4 7 9 10 17 10h66c6 0 9 -5 5 -10l-92 -123c-6 -8 -10 -10 -19 -10zM563 -11c-81 0 -135 35 -166 84h-1c-28 -56 -89 -84 -177 -84c-91 0 -161 47 -161 144c0 101 70 148 187 148h109c4 0 6 2 6 6v35c0 66 -26 94 -115 94
c-54 0 -88 -14 -116 -34c-5 -4 -11 -4 -14 1l-27 46c-3 6 -2 10 2 14c36 28 92 47 163 47c79 0 136 -19 159 -64h2c31 42 83 64 144 64c93 0 161 -47 188 -129c10 -31 15 -64 15 -137c0 -6 -4 -10 -11 -10h-303c-4 0 -6 -2 -6 -6c0 -26 3 -42 8 -58c19 -55 62 -83 121 -83
c57 0 97 23 123 53c5 5 10 6 15 2l41 -37c5 -4 5 -9 1 -14c-38 -48 -103 -82 -187 -82zM669 281c4 0 6 2 6 6c0 22 -2 39 -7 54c-16 48 -56 75 -110 75s-94 -27 -110 -75c-5 -15 -7 -32 -7 -54c0 -4 2 -6 6 -6h222zM239 61c75 0 121 35 121 94v53c0 4 -2 6 -6 6h-96
c-83 0 -119 -24 -119 -78c0 -49 36 -75 100 -75z" />
    <glyph glyph-name="cacute" unicode="&#x107;" horiz-adv-x="472" 
d="M259 557h-47c-6 0 -9 4 -6 10l76 123c4 7 9 10 17 10h66c6 0 9 -5 5 -10l-92 -123c-6 -8 -10 -10 -19 -10zM53 240c0 53 6 92 15 121c27 83 97 129 189 129c73 0 129 -31 164 -81c3 -5 3 -9 -3 -14l-44 -36c-5 -4 -10 -4 -14 1c-28 35 -55 52 -103 52
c-52 0 -91 -25 -107 -75c-8 -25 -11 -55 -11 -97c0 -43 3 -73 11 -98c16 -50 55 -75 107 -75c48 0 75 17 103 52c4 5 9 5 14 1l44 -36c6 -5 6 -9 3 -14c-35 -50 -91 -81 -164 -81c-92 0 -162 46 -189 129c-9 29 -15 68 -15 122z" />
    <glyph glyph-name="ccircumflex" unicode="&#x109;" horiz-adv-x="472" 
d="M384 557h-45c-8 0 -12 2 -19 10l-63 70h-2l-64 -70c-7 -8 -10 -10 -19 -10h-45c-6 0 -8 5 -4 10l95 123c5 7 9 10 16 10h43c7 0 11 -3 16 -10l95 -123c4 -5 2 -10 -4 -10zM53 240c0 53 6 92 15 121c27 83 97 129 189 129c73 0 129 -31 164 -81c3 -5 3 -9 -3 -14l-44 -36
c-5 -4 -10 -4 -14 1c-28 35 -55 52 -103 52c-52 0 -91 -25 -107 -75c-8 -25 -11 -55 -11 -97c0 -43 3 -73 11 -98c16 -50 55 -75 107 -75c48 0 75 17 103 52c4 5 9 5 14 1l44 -36c6 -5 6 -9 3 -14c-35 -50 -91 -81 -164 -81c-92 0 -162 46 -189 129c-9 29 -15 68 -15 122z
" />
    <glyph glyph-name="ccaron" unicode="&#x10d;" horiz-adv-x="472" 
d="M277 555h-43c-7 0 -11 3 -16 10l-95 124c-4 5 -2 10 4 10h45c9 0 12 -2 19 -10l64 -71h2l63 71c7 8 11 10 19 10h45c6 0 8 -5 4 -10l-95 -124c-5 -7 -9 -10 -16 -10zM53 240c0 53 6 92 15 121c27 83 97 129 189 129c73 0 129 -31 164 -81c3 -5 3 -9 -3 -14l-44 -36
c-5 -4 -10 -4 -14 1c-28 35 -55 52 -103 52c-52 0 -91 -25 -107 -75c-8 -25 -11 -55 -11 -97c0 -43 3 -73 11 -98c16 -50 55 -75 107 -75c48 0 75 17 103 52c4 5 9 5 14 1l44 -36c6 -5 6 -9 3 -14c-35 -50 -91 -81 -164 -81c-92 0 -162 46 -189 129c-9 29 -15 68 -15 122z
" />
    <glyph glyph-name="cdotaccent" unicode="&#x10b;" horiz-adv-x="472" 
d="M53 240c0 53 6 92 15 121c27 83 97 129 189 129c73 0 129 -31 164 -81c3 -5 3 -9 -3 -14l-44 -36c-5 -4 -10 -4 -14 1c-28 35 -55 52 -103 52c-52 0 -91 -25 -107 -75c-8 -25 -11 -55 -11 -97c0 -43 3 -73 11 -98c16 -50 55 -75 107 -75c48 0 75 17 103 52c4 5 9 5 14 1
l44 -36c6 -5 6 -9 3 -14c-35 -50 -91 -81 -164 -81c-92 0 -162 46 -189 129c-9 29 -15 68 -15 122zM290 587h-69c-6 0 -10 4 -10 10v73c0 6 4 10 10 10h69c6 0 10 -4 10 -10v-73c0 -6 -4 -10 -10 -10z" />
    <glyph glyph-name="ccedilla" unicode="&#xe7;" horiz-adv-x="472" 
d="M228 -152h-55c-6 0 -9 4 -7 10l53 134c-72 10 -128 54 -151 126c-9 29 -15 68 -15 122c0 53 6 92 15 121c27 83 97 129 189 129c73 0 129 -31 164 -81c3 -5 3 -9 -3 -14l-44 -36c-5 -4 -10 -4 -14 1c-28 35 -55 52 -103 52c-52 0 -91 -25 -107 -75
c-8 -25 -11 -55 -11 -97c0 -43 3 -73 11 -98c16 -50 55 -75 107 -75c48 0 75 17 103 52c4 5 9 5 14 1l44 -36c6 -5 6 -9 3 -14c-30 -43 -75 -71 -134 -79l-43 -133c-2 -7 -7 -10 -16 -10z" />
    <glyph glyph-name="dcaron" unicode="&#x10f;" horiz-adv-x="538" 
d="M503 517c-6 0 -10 5 -10 11v142c0 6 4 10 10 10h60c6 0 10 -4 10 -10v-64c0 -8 -1 -13 -6 -20l-50 -61c-5 -6 -9 -8 -14 -8zM446 0h-64c-6 0 -10 4 -10 10v46h-1c-23 -38 -64 -67 -136 -67c-83 0 -141 39 -165 115c-13 38 -17 76 -17 136c0 59 4 97 17 135
c24 76 82 115 165 115c72 0 113 -28 136 -66h1v246c0 6 4 10 10 10h64c6 0 10 -4 10 -10v-660c0 -6 -4 -10 -10 -10zM255 67c53 0 90 25 106 73c8 23 11 52 11 100s-3 76 -11 100c-16 48 -53 72 -106 72s-89 -25 -105 -72c-8 -26 -11 -57 -11 -100c0 -44 3 -75 11 -100
c16 -47 52 -73 105 -73z" />
    <glyph glyph-name="dcroat" unicode="&#x111;" horiz-adv-x="538" 
d="M446 0h-64c-6 0 -10 4 -10 10v46h-1c-23 -38 -64 -67 -136 -67c-83 0 -141 39 -165 115c-13 38 -17 76 -17 136c0 59 4 97 17 135c24 76 82 115 165 115c72 0 113 -28 136 -66h1v125c0 4 -2 6 -6 6h-120c-6 0 -10 4 -10 10v48c0 6 4 10 10 10h120c4 0 6 2 6 6v41
c0 6 4 10 10 10h64c6 0 10 -4 10 -10v-41c0 -4 2 -6 6 -6h26c6 0 10 -4 10 -10v-48c0 -6 -4 -10 -10 -10h-26c-4 0 -6 -2 -6 -6v-539c0 -6 -4 -10 -10 -10zM255 67c53 0 90 25 106 73c8 23 11 52 11 100s-3 76 -11 100c-16 48 -53 72 -106 72s-89 -25 -105 -72
c-8 -26 -11 -57 -11 -100c0 -44 3 -75 11 -100c16 -47 52 -73 105 -73z" />
    <glyph glyph-name="eth" unicode="&#xf0;" horiz-adv-x="516" 
d="M258 -11c-93 0 -162 47 -189 129c-9 29 -16 66 -16 111c0 44 6 84 15 113c26 78 88 124 167 124c31 0 54 -7 78 -23h1l-76 100l-94 -29c-6 -2 -11 1 -13 7l-12 42c-2 6 0 11 7 13l71 21l-55 73c-4 5 -1 10 5 10h72c8 0 13 -3 18 -10l38 -49l93 28c6 2 11 0 13 -6l12 -43
c2 -6 0 -10 -7 -12l-70 -22l29 -38c82 -107 118 -194 118 -286c0 -60 -7 -95 -16 -124c-27 -82 -96 -129 -189 -129zM258 67c54 0 91 26 108 75c8 24 11 51 11 87s-3 63 -11 87c-17 49 -49 75 -108 75c-54 0 -91 -26 -108 -75c-8 -24 -11 -51 -11 -87s3 -63 11 -87
c17 -49 54 -75 108 -75z" />
    <glyph glyph-name="egrave" unicode="&#xe8;" horiz-adv-x="512" 
d="M261 -11c-97 0 -166 47 -192 130c-10 31 -16 66 -16 121s5 92 15 121c27 83 97 129 188 129c92 0 161 -47 188 -129c10 -31 15 -64 15 -137c0 -6 -4 -10 -11 -10h-303c-4 0 -6 -2 -6 -6c0 -26 3 -42 8 -58c19 -55 62 -83 121 -83c57 0 97 23 123 53c5 5 10 6 15 2l41 -37
c5 -4 5 -9 1 -14c-38 -48 -103 -82 -187 -82zM145 281h222c4 0 6 2 6 6c0 22 -2 39 -7 54c-16 48 -56 75 -110 75s-94 -27 -110 -75c-5 -15 -7 -32 -7 -54c0 -4 2 -6 6 -6zM297 557h-47c-9 0 -13 2 -19 10l-92 123c-4 5 -1 10 5 10h66c8 0 14 -3 18 -10l75 -123
c3 -6 0 -10 -6 -10z" />
    <glyph glyph-name="eacute" unicode="&#xe9;" horiz-adv-x="512" 
d="M265 557h-47c-6 0 -9 4 -6 10l76 123c4 7 9 10 17 10h66c6 0 9 -5 5 -10l-92 -123c-6 -8 -10 -10 -19 -10zM261 -11c-97 0 -166 47 -192 130c-10 31 -16 66 -16 121s5 92 15 121c27 83 97 129 188 129c92 0 161 -47 188 -129c10 -31 15 -64 15 -137c0 -6 -4 -10 -11 -10
h-303c-4 0 -6 -2 -6 -6c0 -26 3 -42 8 -58c19 -55 62 -83 121 -83c57 0 97 23 123 53c5 5 10 6 15 2l41 -37c5 -4 5 -9 1 -14c-38 -48 -103 -82 -187 -82zM145 281h222c4 0 6 2 6 6c0 22 -2 39 -7 54c-16 48 -56 75 -110 75s-94 -27 -110 -75c-5 -15 -7 -32 -7 -54
c0 -4 2 -6 6 -6z" />
    <glyph glyph-name="ecircumflex" unicode="&#xea;" horiz-adv-x="512" 
d="M384 557h-45c-8 0 -12 2 -19 10l-63 70h-2l-64 -70c-7 -8 -10 -10 -19 -10h-45c-6 0 -8 5 -4 10l95 123c5 7 9 10 16 10h43c7 0 11 -3 16 -10l95 -123c4 -5 2 -10 -4 -10zM261 -11c-97 0 -166 47 -192 130c-10 31 -16 66 -16 121s5 92 15 121c27 83 97 129 188 129
c92 0 161 -47 188 -129c10 -31 15 -64 15 -137c0 -6 -4 -10 -11 -10h-303c-4 0 -6 -2 -6 -6c0 -26 3 -42 8 -58c19 -55 62 -83 121 -83c57 0 97 23 123 53c5 5 10 6 15 2l41 -37c5 -4 5 -9 1 -14c-38 -48 -103 -82 -187 -82zM145 281h222c4 0 6 2 6 6c0 22 -2 39 -7 54
c-16 48 -56 75 -110 75s-94 -27 -110 -75c-5 -15 -7 -32 -7 -54c0 -4 2 -6 6 -6z" />
    <glyph glyph-name="ecaron" unicode="&#x11b;" horiz-adv-x="512" 
d="M277 555h-43c-7 0 -11 3 -16 10l-95 124c-4 5 -2 10 4 10h45c9 0 12 -2 19 -10l64 -71h2l63 71c7 8 11 10 19 10h45c6 0 8 -5 4 -10l-95 -124c-5 -7 -9 -10 -16 -10zM261 -11c-97 0 -166 47 -192 130c-10 31 -16 66 -16 121s5 92 15 121c27 83 97 129 188 129
c92 0 161 -47 188 -129c10 -31 15 -64 15 -137c0 -6 -4 -10 -11 -10h-303c-4 0 -6 -2 -6 -6c0 -26 3 -42 8 -58c19 -55 62 -83 121 -83c57 0 97 23 123 53c5 5 10 6 15 2l41 -37c5 -4 5 -9 1 -14c-38 -48 -103 -82 -187 -82zM145 281h222c4 0 6 2 6 6c0 22 -2 39 -7 54
c-16 48 -56 75 -110 75s-94 -27 -110 -75c-5 -15 -7 -32 -7 -54c0 -4 2 -6 6 -6z" />
    <glyph glyph-name="edieresis" unicode="&#xeb;" horiz-adv-x="512" 
d="M383 587h-59c-6 0 -10 4 -10 10v73c0 6 4 10 10 10h59c6 0 10 -4 10 -10v-73c0 -6 -4 -10 -10 -10zM186 587h-59c-6 0 -10 4 -10 10v73c0 6 4 10 10 10h59c6 0 10 -4 10 -10v-73c0 -6 -4 -10 -10 -10zM261 -11c-97 0 -166 47 -192 130c-10 31 -16 66 -16 121s5 92 15 121
c27 83 97 129 188 129c92 0 161 -47 188 -129c10 -31 15 -64 15 -137c0 -6 -4 -10 -11 -10h-303c-4 0 -6 -2 -6 -6c0 -26 3 -42 8 -58c19 -55 62 -83 121 -83c57 0 97 23 123 53c5 5 10 6 15 2l41 -37c5 -4 5 -9 1 -14c-38 -48 -103 -82 -187 -82zM145 281h222c4 0 6 2 6 6
c0 22 -2 39 -7 54c-16 48 -56 75 -110 75s-94 -27 -110 -75c-5 -15 -7 -32 -7 -54c0 -4 2 -6 6 -6z" />
    <glyph glyph-name="emacron" unicode="&#x113;" horiz-adv-x="512" 
d="M261 -11c-97 0 -166 47 -192 130c-10 31 -16 66 -16 121s5 92 15 121c27 83 97 129 188 129c92 0 161 -47 188 -129c10 -31 15 -64 15 -137c0 -6 -4 -10 -11 -10h-303c-4 0 -6 -2 -6 -6c0 -26 3 -42 8 -58c19 -55 62 -83 121 -83c57 0 97 23 123 53c5 5 10 6 15 2l41 -37
c5 -4 5 -9 1 -14c-38 -48 -103 -82 -187 -82zM145 281h222c4 0 6 2 6 6c0 22 -2 39 -7 54c-16 48 -56 75 -110 75s-94 -27 -110 -75c-5 -15 -7 -32 -7 -54c0 -4 2 -6 6 -6zM383 601h-255c-6 0 -10 4 -10 10v45c0 6 4 10 10 10h255c6 0 10 -4 10 -10v-45c0 -6 -4 -10 -10 -10
z" />
    <glyph glyph-name="ebreve" unicode="&#x115;" horiz-adv-x="512" 
d="M261 -11c-97 0 -166 47 -192 130c-10 31 -16 66 -16 121s5 92 15 121c27 83 97 129 188 129c92 0 161 -47 188 -129c10 -31 15 -64 15 -137c0 -6 -4 -10 -11 -10h-303c-4 0 -6 -2 -6 -6c0 -26 3 -42 8 -58c19 -55 62 -83 121 -83c57 0 97 23 123 53c5 5 10 6 15 2l41 -37
c5 -4 5 -9 1 -14c-38 -48 -103 -82 -187 -82zM145 281h222c4 0 6 2 6 6c0 22 -2 39 -7 54c-16 48 -56 75 -110 75s-94 -27 -110 -75c-5 -15 -7 -32 -7 -54c0 -4 2 -6 6 -6zM256 561c-78 0 -129 47 -136 113c0 6 3 10 9 10h36c6 0 9 -3 11 -10c11 -34 37 -52 80 -52
c42 0 69 18 79 52c2 7 6 10 12 10h35c6 0 9 -4 9 -10c-7 -66 -58 -113 -135 -113z" />
    <glyph glyph-name="edotaccent" unicode="&#x117;" horiz-adv-x="512" 
d="M261 -11c-97 0 -166 47 -192 130c-10 31 -16 66 -16 121s5 92 15 121c27 83 97 129 188 129c92 0 161 -47 188 -129c10 -31 15 -64 15 -137c0 -6 -4 -10 -11 -10h-303c-4 0 -6 -2 -6 -6c0 -26 3 -42 8 -58c19 -55 62 -83 121 -83c57 0 97 23 123 53c5 5 10 6 15 2l41 -37
c5 -4 5 -9 1 -14c-38 -48 -103 -82 -187 -82zM145 281h222c4 0 6 2 6 6c0 22 -2 39 -7 54c-16 48 -56 75 -110 75s-94 -27 -110 -75c-5 -15 -7 -32 -7 -54c0 -4 2 -6 6 -6zM290 587h-69c-6 0 -10 4 -10 10v73c0 6 4 10 10 10h69c6 0 10 -4 10 -10v-73c0 -6 -4 -10 -10 -10z
" />
    <glyph glyph-name="eogonek" unicode="&#x119;" horiz-adv-x="512" 
d="M337 -182c-50 0 -83 28 -83 79c0 31 13 59 44 96c-12 -2 -23 -4 -37 -4c-97 0 -166 47 -192 130c-10 31 -16 66 -16 121s5 92 15 121c27 83 97 129 188 129c92 0 161 -47 188 -129c10 -31 15 -64 15 -137c0 -6 -4 -10 -11 -10h-303c-4 0 -6 -2 -6 -6c0 -26 3 -42 8 -58
c19 -55 62 -83 121 -83c57 0 97 23 123 53c5 5 10 6 15 2l41 -37c5 -4 5 -9 1 -14c-12 -14 -25 -27 -41 -39c-74 -73 -83 -100 -83 -122c0 -17 10 -26 26 -26c10 0 17 3 27 8c6 3 11 2 14 -4l17 -35c3 -5 1 -10 -4 -14c-17 -12 -43 -21 -67 -21zM367 281c4 0 6 2 6 6
c0 22 -2 39 -7 54c-16 48 -56 75 -110 75s-94 -27 -110 -75c-5 -15 -7 -32 -7 -54c0 -4 2 -6 6 -6h222z" />
    <glyph glyph-name="gcircumflex" unicode="&#x11d;" horiz-adv-x="529" 
d="M382 557h-45c-8 0 -12 2 -19 10l-63 70h-2l-64 -70c-7 -8 -10 -10 -19 -10h-45c-6 0 -8 5 -4 10l95 123c5 7 9 10 16 10h43c7 0 11 -3 16 -10l95 -123c4 -5 2 -10 -4 -10zM238 -191c-67 0 -134 29 -166 71c-4 5 -4 9 1 14l41 41c5 5 10 5 15 0c33 -30 67 -48 113 -48
c79 0 121 41 121 129v56h-1c-22 -40 -63 -66 -133 -66c-81 0 -137 41 -161 116c-12 36 -16 71 -16 126s4 90 16 126c24 75 80 116 161 116c70 0 111 -26 133 -66h1v45c0 6 4 10 10 10h64c6 0 10 -4 10 -10v-448c0 -136 -74 -212 -209 -212zM250 83c50 0 85 23 102 72
c8 24 11 52 11 93s-3 68 -11 93c-17 49 -52 71 -102 71c-52 0 -85 -25 -101 -71c-8 -25 -12 -54 -12 -93s4 -69 12 -93c16 -47 49 -72 101 -72z" />
    <glyph glyph-name="gbreve" unicode="&#x11f;" horiz-adv-x="529" 
d="M238 -191c-67 0 -134 29 -166 71c-4 5 -4 9 1 14l41 41c5 5 10 5 15 0c33 -30 67 -48 113 -48c79 0 121 41 121 129v56h-1c-22 -40 -63 -66 -133 -66c-81 0 -137 41 -161 116c-12 36 -16 71 -16 126s4 90 16 126c24 75 80 116 161 116c70 0 111 -26 133 -66h1v45
c0 6 4 10 10 10h64c6 0 10 -4 10 -10v-448c0 -136 -74 -212 -209 -212zM250 83c50 0 85 23 102 72c8 24 11 52 11 93s-3 68 -11 93c-17 49 -52 71 -102 71c-52 0 -85 -25 -101 -71c-8 -25 -12 -54 -12 -93s4 -69 12 -93c16 -47 49 -72 101 -72zM255 561
c-78 0 -129 47 -136 113c0 6 3 10 9 10h36c6 0 9 -3 11 -10c11 -34 37 -52 80 -52c42 0 69 18 79 52c2 7 6 10 12 10h35c6 0 9 -4 9 -10c-7 -66 -58 -113 -135 -113z" />
    <glyph glyph-name="gdotaccent" unicode="&#x121;" horiz-adv-x="529" 
d="M238 -191c-67 0 -134 29 -166 71c-4 5 -4 9 1 14l41 41c5 5 10 5 15 0c33 -30 67 -48 113 -48c79 0 121 41 121 129v56h-1c-22 -40 -63 -66 -133 -66c-81 0 -137 41 -161 116c-12 36 -16 71 -16 126s4 90 16 126c24 75 80 116 161 116c70 0 111 -26 133 -66h1v45
c0 6 4 10 10 10h64c6 0 10 -4 10 -10v-448c0 -136 -74 -212 -209 -212zM250 83c50 0 85 23 102 72c8 24 11 52 11 93s-3 68 -11 93c-17 49 -52 71 -102 71c-52 0 -85 -25 -101 -71c-8 -25 -12 -54 -12 -93s4 -69 12 -93c16 -47 49 -72 101 -72zM289 587h-69
c-6 0 -10 4 -10 10v73c0 6 4 10 10 10h69c6 0 10 -4 10 -10v-73c0 -6 -4 -10 -10 -10z" />
    <glyph glyph-name="gcommaaccent" unicode="&#x123;" horiz-adv-x="529" 
d="M285 732c5 0 9 -4 9 -10v-140c0 -6 -4 -10 -10 -10h-60c-6 0 -10 4 -10 10v61c0 8 1 13 6 20l51 61c5 6 9 8 14 8zM238 -191c-67 0 -134 29 -166 71c-4 5 -4 9 1 14l41 41c5 5 10 5 15 0c33 -30 67 -48 113 -48c79 0 121 41 121 129v56h-1c-22 -40 -63 -66 -133 -66
c-81 0 -137 41 -161 116c-12 36 -16 71 -16 126s4 90 16 126c24 75 80 116 161 116c70 0 111 -26 133 -66h1v45c0 6 4 10 10 10h64c6 0 10 -4 10 -10v-448c0 -136 -74 -212 -209 -212zM250 83c50 0 85 23 102 72c8 24 11 52 11 93s-3 68 -11 93c-17 49 -52 71 -102 71
c-52 0 -85 -25 -101 -71c-8 -25 -12 -54 -12 -93s4 -69 12 -93c16 -47 49 -72 101 -72z" />
    <glyph glyph-name="hcircumflex" unicode="&#x125;" horiz-adv-x="544" 
d="M457 0h-64c-6 0 -10 4 -10 10v280c0 77 -35 122 -107 122c-65 0 -110 -46 -110 -117v-285c0 -6 -4 -10 -10 -10h-64c-6 0 -10 4 -10 10v660c0 6 4 10 10 10h64c6 0 10 -4 10 -10v-245h1c23 37 69 65 134 65c104 0 166 -71 166 -180v-300c0 -6 -4 -10 -10 -10zM405 754
h-45c-8 0 -12 2 -19 10l-63 70h-2l-64 -70c-7 -8 -10 -10 -19 -10h-45c-6 0 -8 5 -4 10l95 123c5 7 9 10 16 10h43c7 0 11 -3 16 -10l95 -123c4 -5 2 -10 -4 -10z" />
    <glyph glyph-name="hbar" unicode="&#x127;" horiz-adv-x="544" 
d="M457 0h-64c-6 0 -10 4 -10 10v280c0 77 -35 122 -107 122c-65 0 -110 -46 -110 -117v-285c0 -6 -4 -10 -10 -10h-64c-6 0 -10 4 -10 10v539c0 4 -2 6 -6 6h-26c-6 0 -10 4 -10 10v48c0 6 4 10 10 10h26c4 0 6 2 6 6v41c0 6 4 10 10 10h64c6 0 10 -4 10 -10v-41
c0 -4 2 -6 6 -6h120c6 0 10 -4 10 -10v-48c0 -6 -4 -10 -10 -10h-120c-4 0 -6 -2 -6 -6v-124h1c23 37 69 65 134 65c104 0 166 -71 166 -180v-300c0 -6 -4 -10 -10 -10z" />
    <glyph glyph-name="dotlessi" unicode="&#x131;" horiz-adv-x="248" 
d="M156 0h-64c-6 0 -10 4 -10 10v459c0 6 4 10 10 10h64c6 0 10 -4 10 -10v-459c0 -6 -4 -10 -10 -10z" />
    <glyph glyph-name="igrave" unicode="&#xec;" horiz-adv-x="248" 
d="M156 0h-64c-6 0 -10 4 -10 10v459c0 6 4 10 10 10h64c6 0 10 -4 10 -10v-459c0 -6 -4 -10 -10 -10zM151 557h-47c-9 0 -13 2 -19 10l-92 123c-4 5 -1 10 5 10h66c8 0 14 -3 18 -10l75 -123c3 -6 0 -10 -6 -10z" />
    <glyph glyph-name="iacute" unicode="&#xed;" horiz-adv-x="248" 
d="M147 557h-47c-6 0 -9 4 -6 10l76 123c4 7 9 10 17 10h66c6 0 9 -5 5 -10l-92 -123c-6 -8 -10 -10 -19 -10zM156 0h-64c-6 0 -10 4 -10 10v459c0 6 4 10 10 10h64c6 0 10 -4 10 -10v-459c0 -6 -4 -10 -10 -10z" />
    <glyph glyph-name="ibreve" unicode="&#x12d;" horiz-adv-x="248" 
d="M156 0h-64c-6 0 -10 4 -10 10v459c0 6 4 10 10 10h64c6 0 10 -4 10 -10v-459c0 -6 -4 -10 -10 -10zM125 561c-78 0 -129 47 -136 113c0 6 3 10 9 10h36c6 0 9 -3 11 -10c11 -34 37 -52 80 -52c42 0 69 18 79 52c2 7 6 10 12 10h35c6 0 9 -4 9 -10
c-7 -66 -58 -113 -135 -113z" />
    <glyph glyph-name="icircumflex" unicode="&#xee;" horiz-adv-x="248" 
d="M253 557h-45c-8 0 -12 2 -19 10l-63 70h-2l-64 -70c-7 -8 -10 -10 -19 -10h-45c-6 0 -8 5 -4 10l95 123c5 7 9 10 16 10h43c7 0 11 -3 16 -10l95 -123c4 -5 2 -10 -4 -10zM156 0h-64c-6 0 -10 4 -10 10v459c0 6 4 10 10 10h64c6 0 10 -4 10 -10v-459c0 -6 -4 -10 -10 -10
z" />
    <glyph glyph-name="itilde" unicode="&#x129;" horiz-adv-x="248" 
d="M156 0h-64c-6 0 -10 4 -10 10v459c0 6 4 10 10 10h64c6 0 10 -4 10 -10v-459c0 -6 -4 -10 -10 -10zM181 576c-24 0 -42 9 -63 21c-18 10 -33 18 -53 18c-26 0 -44 -15 -63 -32c-4 -4 -8 -2 -8 2v48c0 7 1 11 7 18c18 18 41 32 68 32c25 0 43 -9 63 -21
c18 -10 33 -18 53 -18c26 0 44 15 63 32c4 4 8 2 8 -2v-48c0 -7 -1 -11 -7 -18c-18 -18 -41 -32 -68 -32z" />
    <glyph glyph-name="idieresis" unicode="&#xef;" horiz-adv-x="248" 
d="M252 587h-59c-6 0 -10 4 -10 10v73c0 6 4 10 10 10h59c6 0 10 -4 10 -10v-73c0 -6 -4 -10 -10 -10zM55 587h-59c-6 0 -10 4 -10 10v73c0 6 4 10 10 10h59c6 0 10 -4 10 -10v-73c0 -6 -4 -10 -10 -10zM156 0h-64c-6 0 -10 4 -10 10v459c0 6 4 10 10 10h64
c6 0 10 -4 10 -10v-459c0 -6 -4 -10 -10 -10z" />
    <glyph glyph-name="imacron" unicode="&#x12b;" horiz-adv-x="248" 
d="M156 0h-64c-6 0 -10 4 -10 10v459c0 6 4 10 10 10h64c6 0 10 -4 10 -10v-459c0 -6 -4 -10 -10 -10zM252 601h-255c-6 0 -10 4 -10 10v45c0 6 4 10 10 10h255c6 0 10 -4 10 -10v-45c0 -6 -4 -10 -10 -10z" />
    <glyph glyph-name="iogonek" unicode="&#x12f;" horiz-adv-x="248" 
d="M159 587h-69c-6 0 -10 4 -10 10v73c0 6 4 10 10 10h69c6 0 10 -4 10 -10v-73c0 -6 -4 -10 -10 -10zM110 -182c-50 0 -83 28 -83 79c0 34 16 65 58 106c-2 2 -3 4 -3 7v459c0 6 4 10 10 10h64c6 0 10 -4 10 -10v-459c0 -5 -1 -7 -4 -10c-54 -47 -65 -69 -65 -89
c0 -17 10 -27 26 -27c9 0 18 3 27 8c6 3 11 2 14 -4l17 -35c3 -5 1 -10 -4 -14c-17 -12 -43 -21 -67 -21z" />
    <glyph glyph-name="dotlessj" unicode="&#x237;" horiz-adv-x="248" 
d="M23 -180h-20c-6 0 -10 4 -10 10v58c0 6 4 10 10 10h16c47 0 63 13 63 64v507c0 6 4 10 10 10h64c6 0 10 -4 10 -10v-505c0 -103 -46 -144 -143 -144z" />
    <glyph glyph-name="jcircumflex" unicode="&#x135;" horiz-adv-x="248" 
d="M23 -180h-20c-6 0 -10 4 -10 10v58c0 6 4 10 10 10h16c47 0 63 13 63 64v507c0 6 4 10 10 10h64c6 0 10 -4 10 -10v-505c0 -103 -46 -144 -143 -144zM253 557h-45c-8 0 -12 2 -19 10l-63 70h-2l-64 -70c-7 -8 -10 -10 -19 -10h-45c-6 0 -8 5 -4 10l95 123c5 7 9 10 16 10
h43c7 0 11 -3 16 -10l95 -123c4 -5 2 -10 -4 -10z" />
    <glyph glyph-name="kcommaaccent" unicode="&#x137;" horiz-adv-x="511" 
d="M229 -213c-5 0 -9 4 -9 10v140c0 6 4 10 10 10h60c6 0 10 -4 10 -10v-61c0 -8 -1 -13 -6 -20l-51 -61c-4 -6 -9 -8 -14 -8zM475 0h-74c-7 0 -12 3 -16 10l-136 223l-83 -97v-126c0 -6 -4 -10 -10 -10h-64c-6 0 -10 4 -10 10v660c0 6 4 10 10 10h64c6 0 10 -4 10 -10v-423
l189 223c6 7 11 9 18 9h74c6 0 8 -5 4 -10l-147 -171l177 -288c3 -4 0 -10 -6 -10z" />
    <glyph glyph-name="kgreenlandic" unicode="&#x138;" horiz-adv-x="511" 
d="M475 0h-74c-7 0 -12 3 -16 10l-136 223l-83 -97v-126c0 -6 -4 -10 -10 -10h-64c-6 0 -10 4 -10 10v459c0 6 4 10 10 10h64c6 0 10 -4 10 -10v-222l189 223c6 7 11 9 18 9h74c6 0 8 -5 4 -10l-147 -171l177 -288c3 -4 0 -10 -6 -10z" />
    <glyph glyph-name="lacute" unicode="&#x13a;" horiz-adv-x="277" 
d="M149 762h-50c-6 0 -8 5 -4 10l86 106c5 6 9 10 18 10h70c6 0 9 -5 5 -10l-107 -107c-7 -8 -11 -9 -18 -9zM231 -5h-34c-84 0 -117 40 -117 126v549c0 6 4 10 10 10h64c6 0 10 -4 10 -10v-544c0 -40 15 -53 48 -53h19c6 0 10 -4 10 -10v-58c0 -6 -4 -10 -10 -10z" />
    <glyph glyph-name="lcaron" unicode="&#x13e;" horiz-adv-x="278" 
d="M215 517c-6 0 -10 5 -10 11v142c0 6 4 10 10 10h60c6 0 10 -4 10 -10v-64c0 -8 -1 -13 -6 -20l-50 -61c-5 -6 -9 -8 -14 -8zM231 -5h-34c-84 0 -117 40 -117 126v549c0 6 4 10 10 10h64c6 0 10 -4 10 -10v-544c0 -40 15 -53 48 -53h19c6 0 10 -4 10 -10v-58
c0 -6 -4 -10 -10 -10z" />
    <glyph glyph-name="lcommaaccent" unicode="&#x13c;" horiz-adv-x="277" 
d="M132 -213c-5 0 -9 4 -9 10v140c0 6 4 10 10 10h60c6 0 10 -4 10 -10v-61c0 -8 -1 -13 -6 -20l-51 -61c-4 -6 -9 -8 -14 -8zM231 -5h-34c-84 0 -117 40 -117 126v549c0 6 4 10 10 10h64c6 0 10 -4 10 -10v-544c0 -40 15 -53 48 -53h19c6 0 10 -4 10 -10v-58
c0 -6 -4 -10 -10 -10z" />
    <glyph glyph-name="lslash" unicode="&#x142;" horiz-adv-x="278" 
d="M231 375l-67 -35v-214c0 -40 15 -53 48 -53h19c6 0 10 -4 10 -10v-58c0 -6 -4 -10 -10 -10h-34c-84 0 -117 40 -117 126v180l-35 -18c-6 -3 -10 0 -10 6v54c0 7 2 11 10 15l35 18v294c0 6 4 10 10 10h64c6 0 10 -4 10 -10v-254l67 35c6 3 10 0 10 -6v-55
c0 -7 -2 -11 -10 -15z" />
    <glyph glyph-name="ldot" unicode="&#x140;" horiz-adv-x="328" 
d="M231 -5h-34c-84 0 -117 40 -117 126v549c0 6 4 10 10 10h64c6 0 10 -4 10 -10v-544c0 -40 15 -53 48 -53h19c6 0 10 -4 10 -10v-58c0 -6 -4 -10 -10 -10zM324 282h-76c-6 0 -10 4 -10 10v86c0 6 4 10 10 10h76c6 0 10 -4 10 -10v-86c0 -6 -4 -10 -10 -10z" />
    <glyph glyph-name="nacute" unicode="&#x144;" horiz-adv-x="544" 
d="M266 557h-47c-6 0 -9 4 -6 10l76 123c4 7 9 10 17 10h66c6 0 9 -5 5 -10l-92 -123c-6 -8 -10 -10 -19 -10zM457 0h-64c-6 0 -10 4 -10 10v280c0 77 -35 122 -107 122c-65 0 -110 -46 -110 -117v-285c0 -6 -4 -10 -10 -10h-64c-6 0 -10 4 -10 10v459c0 6 4 10 10 10h64
c6 0 10 -4 10 -10v-44h1c23 37 69 65 134 65c104 0 166 -71 166 -180v-300c0 -6 -4 -10 -10 -10z" />
    <glyph glyph-name="ncaron" unicode="&#x148;" horiz-adv-x="544" 
d="M293 555h-43c-7 0 -11 3 -16 10l-95 124c-4 5 -2 10 4 10h45c9 0 12 -2 19 -10l64 -71h2l63 71c7 8 11 10 19 10h45c6 0 8 -5 4 -10l-95 -124c-5 -7 -9 -10 -16 -10zM457 0h-64c-6 0 -10 4 -10 10v280c0 77 -35 122 -107 122c-65 0 -110 -46 -110 -117v-285
c0 -6 -4 -10 -10 -10h-64c-6 0 -10 4 -10 10v459c0 6 4 10 10 10h64c6 0 10 -4 10 -10v-44h1c23 37 69 65 134 65c104 0 166 -71 166 -180v-300c0 -6 -4 -10 -10 -10z" />
    <glyph glyph-name="ntilde" unicode="&#xf1;" horiz-adv-x="544" 
d="M457 0h-64c-6 0 -10 4 -10 10v280c0 77 -35 122 -107 122c-65 0 -110 -46 -110 -117v-285c0 -6 -4 -10 -10 -10h-64c-6 0 -10 4 -10 10v459c0 6 4 10 10 10h64c6 0 10 -4 10 -10v-44h1c23 37 69 65 134 65c104 0 166 -71 166 -180v-300c0 -6 -4 -10 -10 -10zM327 576
c-24 0 -42 9 -63 21c-18 10 -33 18 -53 18c-26 0 -44 -15 -63 -32c-4 -4 -8 -2 -8 2v48c0 7 1 11 7 18c18 18 41 32 68 32c25 0 43 -9 63 -21c18 -10 33 -18 53 -18c26 0 44 15 63 32c4 4 8 2 8 -2v-48c0 -7 -1 -11 -7 -18c-18 -18 -41 -32 -68 -32z" />
    <glyph glyph-name="ncommaaccent" unicode="&#x146;" horiz-adv-x="544" 
d="M242 -213c-5 0 -9 4 -9 10v140c0 6 4 10 10 10h60c6 0 10 -4 10 -10v-61c0 -8 -1 -13 -6 -20l-51 -61c-4 -6 -9 -8 -14 -8zM457 0h-64c-6 0 -10 4 -10 10v280c0 77 -35 122 -107 122c-65 0 -110 -46 -110 -117v-285c0 -6 -4 -10 -10 -10h-64c-6 0 -10 4 -10 10v459
c0 6 4 10 10 10h64c6 0 10 -4 10 -10v-44h1c23 37 69 65 134 65c104 0 166 -71 166 -180v-300c0 -6 -4 -10 -10 -10z" />
    <glyph glyph-name="ograve" unicode="&#xf2;" horiz-adv-x="516" 
d="M258 -11c-93 0 -163 48 -189 129c-11 33 -16 66 -16 122c0 55 5 88 16 121c26 82 96 129 189 129s163 -47 189 -129c11 -33 16 -66 16 -121c0 -56 -5 -89 -16 -122c-26 -81 -96 -129 -189 -129zM258 67c53 0 92 27 108 75c8 26 11 52 11 98s-3 71 -11 97
c-16 48 -55 75 -108 75s-92 -27 -108 -75c-8 -26 -11 -51 -11 -97s3 -72 11 -98c16 -48 55 -75 108 -75zM294 557h-47c-9 0 -13 2 -19 10l-92 123c-4 5 -1 10 5 10h66c8 0 14 -3 18 -10l75 -123c3 -6 0 -10 -6 -10z" />
    <glyph glyph-name="oacute" unicode="&#xf3;" horiz-adv-x="516" 
d="M269 557h-47c-6 0 -9 4 -6 10l76 123c4 7 9 10 17 10h66c6 0 9 -5 5 -10l-92 -123c-6 -8 -10 -10 -19 -10zM258 -11c-93 0 -163 48 -189 129c-11 33 -16 66 -16 122c0 55 5 88 16 121c26 82 96 129 189 129s163 -47 189 -129c11 -33 16 -66 16 -121
c0 -56 -5 -89 -16 -122c-26 -81 -96 -129 -189 -129zM258 67c53 0 92 27 108 75c8 26 11 52 11 98s-3 71 -11 97c-16 48 -55 75 -108 75s-92 -27 -108 -75c-8 -26 -11 -51 -11 -97s3 -72 11 -98c16 -48 55 -75 108 -75z" />
    <glyph glyph-name="ocircumflex" unicode="&#xf4;" horiz-adv-x="516" 
d="M386 557h-45c-8 0 -12 2 -19 10l-63 70h-2l-64 -70c-7 -8 -10 -10 -19 -10h-45c-6 0 -8 5 -4 10l95 123c5 7 9 10 16 10h43c7 0 11 -3 16 -10l95 -123c4 -5 2 -10 -4 -10zM258 -11c-93 0 -163 48 -189 129c-11 33 -16 66 -16 122c0 55 5 88 16 121c26 82 96 129 189 129
s163 -47 189 -129c11 -33 16 -66 16 -121c0 -56 -5 -89 -16 -122c-26 -81 -96 -129 -189 -129zM258 67c53 0 92 27 108 75c8 26 11 52 11 98s-3 71 -11 97c-16 48 -55 75 -108 75s-92 -27 -108 -75c-8 -26 -11 -51 -11 -97s3 -72 11 -98c16 -48 55 -75 108 -75z" />
    <glyph glyph-name="otilde" unicode="&#xf5;" horiz-adv-x="516" 
d="M258 -11c-93 0 -163 48 -189 129c-11 33 -16 66 -16 122c0 55 5 88 16 121c26 82 96 129 189 129s163 -47 189 -129c11 -33 16 -66 16 -121c0 -56 -5 -89 -16 -122c-26 -81 -96 -129 -189 -129zM258 67c53 0 92 27 108 75c8 26 11 52 11 98s-3 71 -11 97
c-16 48 -55 75 -108 75s-92 -27 -108 -75c-8 -26 -11 -51 -11 -97s3 -72 11 -98c16 -48 55 -75 108 -75zM313 576c-24 0 -42 9 -63 21c-18 10 -33 18 -53 18c-26 0 -44 -15 -63 -32c-4 -4 -8 -2 -8 2v48c0 7 1 11 7 18c18 18 41 32 68 32c25 0 43 -9 63 -21
c18 -10 33 -18 53 -18c26 0 44 15 63 32c4 4 8 2 8 -2v-48c0 -7 -1 -11 -7 -18c-18 -18 -41 -32 -68 -32z" />
    <glyph glyph-name="odieresis" unicode="&#xf6;" horiz-adv-x="516" 
d="M385 587h-59c-6 0 -10 4 -10 10v73c0 6 4 10 10 10h59c6 0 10 -4 10 -10v-73c0 -6 -4 -10 -10 -10zM188 587h-59c-6 0 -10 4 -10 10v73c0 6 4 10 10 10h59c6 0 10 -4 10 -10v-73c0 -6 -4 -10 -10 -10zM258 -11c-93 0 -163 48 -189 129c-11 33 -16 66 -16 122
c0 55 5 88 16 121c26 82 96 129 189 129s163 -47 189 -129c11 -33 16 -66 16 -121c0 -56 -5 -89 -16 -122c-26 -81 -96 -129 -189 -129zM258 67c53 0 92 27 108 75c8 26 11 52 11 98s-3 71 -11 97c-16 48 -55 75 -108 75s-92 -27 -108 -75c-8 -26 -11 -51 -11 -97
s3 -72 11 -98c16 -48 55 -75 108 -75z" />
    <glyph glyph-name="omacron" unicode="&#x14d;" horiz-adv-x="516" 
d="M385 601h-255c-6 0 -10 4 -10 10v45c0 6 4 10 10 10h255c6 0 10 -4 10 -10v-45c0 -6 -4 -10 -10 -10zM258 -11c-93 0 -163 48 -189 129c-11 33 -16 66 -16 122c0 55 5 88 16 121c26 82 96 129 189 129s163 -47 189 -129c11 -33 16 -66 16 -121c0 -56 -5 -89 -16 -122
c-26 -81 -96 -129 -189 -129zM258 67c53 0 92 27 108 75c8 26 11 52 11 98s-3 71 -11 97c-16 48 -55 75 -108 75s-92 -27 -108 -75c-8 -26 -11 -51 -11 -97s3 -72 11 -98c16 -48 55 -75 108 -75z" />
    <glyph glyph-name="obreve" unicode="&#x14f;" horiz-adv-x="516" 
d="M258 -11c-93 0 -163 48 -189 129c-11 33 -16 66 -16 122c0 55 5 88 16 121c26 82 96 129 189 129s163 -47 189 -129c11 -33 16 -66 16 -121c0 -56 -5 -89 -16 -122c-26 -81 -96 -129 -189 -129zM258 67c53 0 92 27 108 75c8 26 11 52 11 98s-3 71 -11 97
c-16 48 -55 75 -108 75s-92 -27 -108 -75c-8 -26 -11 -51 -11 -97s3 -72 11 -98c16 -48 55 -75 108 -75zM258 561c-78 0 -129 47 -136 113c0 6 3 10 9 10h36c6 0 9 -3 11 -10c11 -34 37 -52 80 -52c42 0 69 18 79 52c2 7 6 10 12 10h35c6 0 9 -4 9 -10
c-7 -66 -58 -113 -135 -113z" />
    <glyph glyph-name="ohungarumlaut" unicode="&#x151;" horiz-adv-x="516" 
d="M349 557h-45c-6 0 -9 4 -6 10l66 123c4 6 8 10 16 10h57c6 0 8 -5 5 -10l-77 -124c-4 -7 -8 -9 -16 -9zM207 557h-45c-6 0 -9 4 -6 10l66 123c4 6 8 10 16 10h57c6 0 8 -5 5 -10l-77 -124c-4 -7 -8 -9 -16 -9zM258 -11c-93 0 -163 48 -189 129c-11 33 -16 66 -16 122
c0 55 5 88 16 121c26 82 96 129 189 129s163 -47 189 -129c11 -33 16 -66 16 -121c0 -56 -5 -89 -16 -122c-26 -81 -96 -129 -189 -129zM258 67c53 0 92 27 108 75c8 26 11 52 11 98s-3 71 -11 97c-16 48 -55 75 -108 75s-92 -27 -108 -75c-8 -26 -11 -51 -11 -97
s3 -72 11 -98c16 -48 55 -75 108 -75z" />
    <glyph glyph-name="oslash" unicode="&#xf8;" horiz-adv-x="516" 
d="M258 -11c-47 0 -89 12 -121 35l-30 -44c-5 -7 -10 -10 -18 -10h-29c-6 0 -8 5 -5 10l49 73c-15 18 -27 40 -35 65c-11 33 -16 66 -16 122c0 55 5 88 16 121c26 82 96 129 189 129c47 0 88 -12 121 -35l30 44c5 8 10 10 18 10h29c6 0 8 -5 5 -10l-49 -74
c15 -18 27 -39 35 -64c11 -33 16 -66 16 -121c0 -56 -5 -89 -16 -122c-26 -81 -96 -129 -189 -129zM155 126l177 262c-20 16 -45 24 -74 24c-53 0 -93 -27 -109 -75c-8 -26 -11 -51 -11 -97s2 -79 17 -114zM258 67c53 0 93 27 109 75c8 26 11 52 11 98c0 51 -5 81 -18 113
l-177 -262c20 -16 45 -24 75 -24z" />
    <glyph glyph-name="oslashacute" unicode="&#x1ff;" horiz-adv-x="516" 
d="M258 -11c-47 0 -89 12 -121 35l-30 -44c-5 -7 -10 -10 -18 -10h-29c-6 0 -8 5 -5 10l49 73c-15 18 -27 40 -35 65c-11 33 -16 66 -16 122c0 55 5 88 16 121c26 82 96 129 189 129c47 0 88 -12 121 -35l30 44c5 8 10 10 18 10h29c6 0 8 -5 5 -10l-49 -74
c15 -18 27 -39 35 -64c11 -33 16 -66 16 -121c0 -56 -5 -89 -16 -122c-26 -81 -96 -129 -189 -129zM155 126l177 262c-20 16 -45 24 -74 24c-53 0 -93 -27 -109 -75c-8 -26 -11 -51 -11 -97s2 -79 17 -114zM258 67c53 0 93 27 109 75c8 26 11 52 11 98c0 51 -5 81 -18 113
l-177 -262c20 -16 45 -24 75 -24zM265 557h-47c-6 0 -9 4 -6 10l76 123c4 7 9 10 17 10h66c6 0 9 -5 5 -10l-92 -123c-6 -8 -10 -10 -19 -10z" />
    <glyph glyph-name="oe" unicode="&#x153;" horiz-adv-x="835" 
d="M585 -11c-74 0 -130 27 -164 82h-1c-36 -56 -91 -82 -162 -82c-93 0 -163 48 -189 129c-11 33 -16 66 -16 122c0 55 5 88 16 121c26 82 96 129 189 129c69 0 126 -26 161 -80h2c32 54 91 80 158 80c93 0 162 -47 188 -129c11 -31 16 -64 16 -137c0 -6 -4 -10 -11 -10
h-304c-4 0 -6 -2 -6 -6c1 -26 3 -42 9 -58c19 -56 61 -83 120 -83c58 0 98 23 123 53c5 5 10 6 15 2l41 -37c5 -4 5 -9 1 -14c-38 -48 -102 -82 -186 -82zM691 281c4 0 6 2 6 6c0 22 -3 39 -8 54c-16 48 -56 75 -110 75c-53 0 -94 -27 -109 -75c-5 -15 -8 -32 -8 -54
c0 -4 2 -6 6 -6h223zM258 67c53 0 92 27 108 75c8 26 11 52 11 98s-3 71 -11 97c-16 48 -55 75 -108 75s-92 -27 -108 -75c-8 -26 -11 -51 -11 -97s3 -72 11 -98c16 -48 55 -75 108 -75z" />
    <glyph glyph-name="racute" unicode="&#x155;" horiz-adv-x="410" 
d="M218 557h-47c-6 0 -9 4 -6 10l76 123c4 7 9 10 17 10h66c6 0 9 -5 5 -10l-92 -123c-6 -8 -10 -10 -19 -10zM156 0h-64c-6 0 -10 4 -10 10v459c0 6 4 10 10 10h64c6 0 10 -4 10 -10v-49h1c21 41 63 70 127 70c38 0 74 -14 98 -36c5 -5 6 -9 2 -14l-37 -49
c-4 -5 -9 -6 -14 -2c-22 14 -46 23 -74 23c-73 0 -103 -57 -103 -140v-262c0 -6 -4 -10 -10 -10z" />
    <glyph glyph-name="rcaron" unicode="&#x159;" horiz-adv-x="410" 
d="M249 555h-43c-7 0 -11 3 -16 10l-95 124c-4 5 -2 10 4 10h45c9 0 12 -2 19 -10l64 -71h2l63 71c7 8 11 10 19 10h45c6 0 8 -5 4 -10l-95 -124c-5 -7 -9 -10 -16 -10zM156 0h-64c-6 0 -10 4 -10 10v459c0 6 4 10 10 10h64c6 0 10 -4 10 -10v-49h1c21 41 63 70 127 70
c38 0 74 -14 98 -36c5 -5 6 -9 2 -14l-37 -49c-4 -5 -9 -6 -14 -2c-22 14 -46 23 -74 23c-73 0 -103 -57 -103 -140v-262c0 -6 -4 -10 -10 -10z" />
    <glyph glyph-name="rcommaaccent" unicode="&#x157;" horiz-adv-x="410" 
d="M94 -213c-5 0 -9 4 -9 10v140c0 6 4 10 10 10h60c6 0 10 -4 10 -10v-61c0 -8 -1 -13 -6 -20l-51 -61c-4 -6 -9 -8 -14 -8zM156 0h-64c-6 0 -10 4 -10 10v459c0 6 4 10 10 10h64c6 0 10 -4 10 -10v-49h1c21 41 63 70 127 70c38 0 74 -14 98 -36c5 -5 6 -9 2 -14l-37 -49
c-4 -5 -9 -6 -14 -2c-22 14 -46 23 -74 23c-73 0 -103 -57 -103 -140v-262c0 -6 -4 -10 -10 -10z" />
    <glyph glyph-name="sacute" unicode="&#x15b;" horiz-adv-x="490" 
d="M252 557h-47c-6 0 -9 4 -6 10l76 123c4 7 9 10 17 10h66c6 0 9 -5 5 -10l-92 -123c-6 -8 -10 -10 -19 -10zM247 -11c-93 0 -159 38 -198 72c-4 4 -4 10 0 14l41 44c4 4 10 4 14 0c36 -31 90 -55 148 -55c70 0 105 30 105 73c0 38 -18 59 -93 67l-51 5
c-94 10 -143 57 -143 135c0 91 65 146 178 146c70 0 130 -23 170 -53c5 -3 5 -9 2 -14l-34 -43c-4 -5 -9 -5 -14 -2c-31 20 -80 39 -129 39c-60 0 -91 -27 -91 -66c0 -38 23 -58 94 -65l50 -5c97 -9 144 -58 144 -135c0 -94 -68 -157 -193 -157z" />
    <glyph glyph-name="scircumflex" unicode="&#x15d;" horiz-adv-x="490" 
d="M375 557h-45c-8 0 -12 2 -19 10l-63 70h-2l-64 -70c-7 -8 -10 -10 -19 -10h-45c-6 0 -8 5 -4 10l95 123c5 7 9 10 16 10h43c7 0 11 -3 16 -10l95 -123c4 -5 2 -10 -4 -10zM247 -11c-93 0 -159 38 -198 72c-4 4 -4 10 0 14l41 44c4 4 10 4 14 0c36 -31 90 -55 148 -55
c70 0 105 30 105 73c0 38 -18 59 -93 67l-51 5c-94 10 -143 57 -143 135c0 91 65 146 178 146c70 0 130 -23 170 -53c5 -3 5 -9 2 -14l-34 -43c-4 -5 -9 -5 -14 -2c-31 20 -80 39 -129 39c-60 0 -91 -27 -91 -66c0 -38 23 -58 94 -65l50 -5c97 -9 144 -58 144 -135
c0 -94 -68 -157 -193 -157z" />
    <glyph glyph-name="scaron" unicode="&#x161;" horiz-adv-x="490" 
d="M268 555h-43c-7 0 -11 3 -16 10l-95 124c-4 5 -2 10 4 10h45c9 0 12 -2 19 -10l64 -71h2l63 71c7 8 11 10 19 10h45c6 0 8 -5 4 -10l-95 -124c-5 -7 -9 -10 -16 -10zM247 -11c-93 0 -159 38 -198 72c-4 4 -4 10 0 14l41 44c4 4 10 4 14 0c36 -31 90 -55 148 -55
c70 0 105 30 105 73c0 38 -18 59 -93 67l-51 5c-94 10 -143 57 -143 135c0 91 65 146 178 146c70 0 130 -23 170 -53c5 -3 5 -9 2 -14l-34 -43c-4 -5 -9 -5 -14 -2c-31 20 -80 39 -129 39c-60 0 -91 -27 -91 -66c0 -38 23 -58 94 -65l50 -5c97 -9 144 -58 144 -135
c0 -94 -68 -157 -193 -157z" />
    <glyph glyph-name="scedilla" unicode="&#x15f;" horiz-adv-x="490" 
d="M227 -152h-55c-6 0 -9 4 -7 10l53 132c-77 7 -134 40 -169 71c-4 4 -4 10 0 14l41 44c4 4 10 4 14 0c36 -31 90 -55 148 -55c70 0 105 30 105 73c0 38 -18 59 -93 67l-51 5c-94 10 -143 57 -143 135c0 91 65 146 178 146c70 0 130 -23 170 -53c5 -3 5 -9 2 -14l-34 -43
c-4 -5 -9 -5 -14 -2c-31 20 -80 39 -129 39c-60 0 -91 -27 -91 -66c0 -38 23 -58 94 -65l50 -5c97 -9 144 -58 144 -135c0 -83 -54 -142 -154 -155l-43 -133c-2 -7 -7 -10 -16 -10z" />
    <glyph glyph-name="scommaaccent" unicode="&#x219;" horiz-adv-x="490" 
d="M214 -213c-5 0 -9 4 -9 10v140c0 6 4 10 10 10h60c6 0 10 -4 10 -10v-61c0 -8 -1 -13 -6 -20l-51 -61c-4 -6 -9 -8 -14 -8zM247 -11c-93 0 -159 38 -198 72c-4 4 -4 10 0 14l41 44c4 4 10 4 14 0c36 -31 90 -55 148 -55c70 0 105 30 105 73c0 38 -18 59 -93 67l-51 5
c-94 10 -143 57 -143 135c0 91 65 146 178 146c70 0 130 -23 170 -53c5 -3 5 -9 2 -14l-34 -43c-4 -5 -9 -5 -14 -2c-31 20 -80 39 -129 39c-60 0 -91 -27 -91 -66c0 -38 23 -58 94 -65l50 -5c97 -9 144 -58 144 -135c0 -94 -68 -157 -193 -157z" />
    <glyph glyph-name="germandbls" unicode="&#xdf;" horiz-adv-x="539" 
d="M305 -4h-22c-6 0 -10 4 -10 10v58c0 6 4 10 10 10h20c48 0 76 13 89 51c4 13 6 30 6 98c0 66 -2 86 -7 102c-13 39 -45 55 -97 55h-11c-6 0 -10 4 -10 10v58c0 6 4 10 10 10h20c59 0 87 23 87 77c0 51 -38 79 -107 79c-83 0 -117 -35 -117 -119v-485c0 -6 -4 -10 -10 -10
h-64c-6 0 -10 4 -10 10v482c0 126 56 199 199 199c126 0 193 -56 193 -156c0 -52 -22 -90 -63 -112v-2c28 -13 49 -33 61 -68c8 -27 11 -52 11 -130c0 -81 -4 -108 -12 -133c-22 -68 -77 -94 -166 -94z" />
    <glyph glyph-name="tcaron" unicode="&#x165;" horiz-adv-x="316" 
d="M249 517c-6 0 -10 5 -10 11v142c0 6 4 10 10 10h60c6 0 10 -4 10 -10v-64c0 -8 -1 -13 -6 -20l-50 -61c-5 -6 -9 -8 -14 -8zM258 -5h-37c-93 0 -129 42 -129 136v274c0 4 -2 6 -6 6h-40c-6 0 -10 4 -10 10v48c0 6 4 10 10 10h40c4 0 6 2 6 6v135c0 6 4 10 10 10h64
c6 0 10 -4 10 -10v-135c0 -4 2 -6 6 -6h76c6 0 10 -4 10 -10v-48c0 -6 -4 -10 -10 -10h-76c-4 0 -6 -2 -6 -6v-271c0 -48 18 -61 61 -61h21c6 0 10 -4 10 -10v-58c0 -6 -4 -10 -10 -10z" />
    <glyph glyph-name="tcommaaccent" unicode="&#x163;" horiz-adv-x="316" 
d="M149 -213c-5 0 -9 4 -9 10v140c0 6 4 10 10 10h60c6 0 10 -4 10 -10v-61c0 -8 -1 -13 -6 -20l-51 -61c-4 -6 -9 -8 -14 -8zM258 -5h-37c-93 0 -129 42 -129 136v274c0 4 -2 6 -6 6h-40c-6 0 -10 4 -10 10v48c0 6 4 10 10 10h40c4 0 6 2 6 6v135c0 6 4 10 10 10h64
c6 0 10 -4 10 -10v-135c0 -4 2 -6 6 -6h76c6 0 10 -4 10 -10v-48c0 -6 -4 -10 -10 -10h-76c-4 0 -6 -2 -6 -6v-271c0 -48 18 -61 61 -61h21c6 0 10 -4 10 -10v-58c0 -6 -4 -10 -10 -10z" />
    <glyph glyph-name="uni021B" unicode="&#x21b;" horiz-adv-x="316" 
d="M149 -213c-5 0 -9 4 -9 10v140c0 6 4 10 10 10h60c6 0 10 -4 10 -10v-61c0 -8 -1 -13 -6 -20l-51 -61c-4 -6 -9 -8 -14 -8zM258 -5h-37c-93 0 -129 42 -129 136v274c0 4 -2 6 -6 6h-40c-6 0 -10 4 -10 10v48c0 6 4 10 10 10h40c4 0 6 2 6 6v135c0 6 4 10 10 10h64
c6 0 10 -4 10 -10v-135c0 -4 2 -6 6 -6h76c6 0 10 -4 10 -10v-48c0 -6 -4 -10 -10 -10h-76c-4 0 -6 -2 -6 -6v-271c0 -48 18 -61 61 -61h21c6 0 10 -4 10 -10v-58c0 -6 -4 -10 -10 -10z" />
    <glyph glyph-name="tbar" unicode="&#x167;" horiz-adv-x="316" 
d="M258 -5h-37c-93 0 -129 42 -129 136v136c0 4 -2 6 -6 6h-30c-6 0 -10 4 -10 10v45c0 6 4 10 10 10h30c4 0 6 2 6 6v61c0 4 -2 6 -6 6h-40c-6 0 -10 4 -10 10v48c0 6 4 10 10 10h40c4 0 6 2 6 6v135c0 6 4 10 10 10h64c6 0 10 -4 10 -10v-135c0 -4 2 -6 6 -6h76
c6 0 10 -4 10 -10v-48c0 -6 -4 -10 -10 -10h-76c-4 0 -6 -2 -6 -6v-61c0 -4 2 -6 6 -6h65c6 0 10 -4 10 -10v-45c0 -6 -4 -10 -10 -10h-65c-4 0 -6 -2 -6 -6v-133c0 -48 18 -61 61 -61h21c6 0 10 -4 10 -10v-58c0 -6 -4 -10 -10 -10z" />
    <glyph glyph-name="thorn" unicode="&#xfe;" horiz-adv-x="538" 
d="M156 -180h-64c-6 0 -10 4 -10 10v840c0 6 4 10 10 10h64c6 0 10 -4 10 -10v-246h1c23 38 64 66 136 66c83 0 141 -39 165 -115c13 -38 17 -76 17 -135c0 -60 -4 -98 -17 -136c-24 -76 -82 -115 -165 -115c-72 0 -113 29 -136 67h-1v-226c0 -6 -4 -10 -10 -10zM283 67
c53 0 89 26 105 73c8 25 11 56 11 100c0 43 -3 74 -11 100c-16 47 -52 72 -105 72s-90 -24 -106 -72c-8 -24 -11 -52 -11 -100s3 -77 11 -100c16 -48 53 -73 106 -73z" />
    <glyph glyph-name="ugrave" unicode="&#xf9;" horiz-adv-x="539" 
d="M447 0h-64c-6 0 -10 4 -10 10v45h-1c-25 -40 -69 -66 -131 -66c-105 0 -166 72 -166 181v299c0 6 4 10 10 10h64c6 0 10 -4 10 -10v-279c0 -78 35 -123 106 -123c65 0 108 46 108 118v284c0 6 4 10 10 10h64c6 0 10 -4 10 -10v-459c0 -6 -4 -10 -10 -10zM307 557h-47
c-9 0 -13 2 -19 10l-92 123c-4 5 -1 10 5 10h66c8 0 14 -3 18 -10l75 -123c3 -6 0 -10 -6 -10z" />
    <glyph glyph-name="uacute" unicode="&#xfa;" horiz-adv-x="539" 
d="M280 557h-47c-6 0 -9 4 -6 10l76 123c4 7 9 10 17 10h66c6 0 9 -5 5 -10l-92 -123c-6 -8 -10 -10 -19 -10zM447 0h-64c-6 0 -10 4 -10 10v45h-1c-25 -40 -69 -66 -131 -66c-105 0 -166 72 -166 181v299c0 6 4 10 10 10h64c6 0 10 -4 10 -10v-279c0 -78 35 -123 106 -123
c65 0 108 46 108 118v284c0 6 4 10 10 10h64c6 0 10 -4 10 -10v-459c0 -6 -4 -10 -10 -10z" />
    <glyph glyph-name="ucircumflex" unicode="&#xfb;" horiz-adv-x="539" 
d="M397 557h-45c-8 0 -12 2 -19 10l-63 70h-2l-64 -70c-7 -8 -10 -10 -19 -10h-45c-6 0 -8 5 -4 10l95 123c5 7 9 10 16 10h43c7 0 11 -3 16 -10l95 -123c4 -5 2 -10 -4 -10zM447 0h-64c-6 0 -10 4 -10 10v45h-1c-25 -40 -69 -66 -131 -66c-105 0 -166 72 -166 181v299
c0 6 4 10 10 10h64c6 0 10 -4 10 -10v-279c0 -78 35 -123 106 -123c65 0 108 46 108 118v284c0 6 4 10 10 10h64c6 0 10 -4 10 -10v-459c0 -6 -4 -10 -10 -10z" />
    <glyph glyph-name="utilde" unicode="&#x169;" horiz-adv-x="539" 
d="M447 0h-64c-6 0 -10 4 -10 10v45h-1c-25 -40 -69 -66 -131 -66c-105 0 -166 72 -166 181v299c0 6 4 10 10 10h64c6 0 10 -4 10 -10v-279c0 -78 35 -123 106 -123c65 0 108 46 108 118v284c0 6 4 10 10 10h64c6 0 10 -4 10 -10v-459c0 -6 -4 -10 -10 -10zM325 576
c-24 0 -42 9 -63 21c-18 10 -33 18 -53 18c-26 0 -44 -15 -63 -32c-4 -4 -8 -2 -8 2v48c0 7 1 11 7 18c18 18 41 32 68 32c25 0 43 -9 63 -21c18 -10 33 -18 53 -18c26 0 44 15 63 32c4 4 8 2 8 -2v-48c0 -7 -1 -11 -7 -18c-18 -18 -41 -32 -68 -32z" />
    <glyph glyph-name="udieresis" unicode="&#xfc;" horiz-adv-x="539" 
d="M397 587h-59c-6 0 -10 4 -10 10v73c0 6 4 10 10 10h59c6 0 10 -4 10 -10v-73c0 -6 -4 -10 -10 -10zM200 587h-59c-6 0 -10 4 -10 10v73c0 6 4 10 10 10h59c6 0 10 -4 10 -10v-73c0 -6 -4 -10 -10 -10zM447 0h-64c-6 0 -10 4 -10 10v45h-1c-25 -40 -69 -66 -131 -66
c-105 0 -166 72 -166 181v299c0 6 4 10 10 10h64c6 0 10 -4 10 -10v-279c0 -78 35 -123 106 -123c65 0 108 46 108 118v284c0 6 4 10 10 10h64c6 0 10 -4 10 -10v-459c0 -6 -4 -10 -10 -10z" />
    <glyph glyph-name="umacron" unicode="&#x16b;" horiz-adv-x="539" 
d="M447 0h-64c-6 0 -10 4 -10 10v45h-1c-25 -40 -69 -66 -131 -66c-105 0 -166 72 -166 181v299c0 6 4 10 10 10h64c6 0 10 -4 10 -10v-279c0 -78 35 -123 106 -123c65 0 108 46 108 118v284c0 6 4 10 10 10h64c6 0 10 -4 10 -10v-459c0 -6 -4 -10 -10 -10zM396 601h-255
c-6 0 -10 4 -10 10v45c0 6 4 10 10 10h255c6 0 10 -4 10 -10v-45c0 -6 -4 -10 -10 -10z" />
    <glyph glyph-name="ubreve" unicode="&#x16d;" horiz-adv-x="539" 
d="M447 0h-64c-6 0 -10 4 -10 10v45h-1c-25 -40 -69 -66 -131 -66c-105 0 -166 72 -166 181v299c0 6 4 10 10 10h64c6 0 10 -4 10 -10v-279c0 -78 35 -123 106 -123c65 0 108 46 108 118v284c0 6 4 10 10 10h64c6 0 10 -4 10 -10v-459c0 -6 -4 -10 -10 -10zM269 561
c-78 0 -129 47 -136 113c0 6 3 10 9 10h36c6 0 9 -3 11 -10c11 -34 37 -52 80 -52c42 0 69 18 79 52c2 7 6 10 12 10h35c6 0 9 -4 9 -10c-7 -66 -58 -113 -135 -113z" />
    <glyph glyph-name="uring" unicode="&#x16f;" horiz-adv-x="539" 
d="M269 535c-53 0 -95 40 -95 94s42 94 95 94s95 -40 95 -94s-42 -94 -95 -94zM269 576c29 0 51 23 51 53s-22 53 -51 53s-51 -23 -51 -53s22 -53 51 -53zM447 0h-64c-6 0 -10 4 -10 10v45h-1c-25 -40 -69 -66 -131 -66c-105 0 -166 72 -166 181v299c0 6 4 10 10 10h64
c6 0 10 -4 10 -10v-279c0 -78 35 -123 106 -123c65 0 108 46 108 118v284c0 6 4 10 10 10h64c6 0 10 -4 10 -10v-459c0 -6 -4 -10 -10 -10z" />
    <glyph glyph-name="uhungarumlaut" unicode="&#x171;" horiz-adv-x="539" 
d="M447 0h-64c-6 0 -10 4 -10 10v45h-1c-25 -40 -69 -66 -131 -66c-105 0 -166 72 -166 181v299c0 6 4 10 10 10h64c6 0 10 -4 10 -10v-279c0 -78 35 -123 106 -123c65 0 108 46 108 118v284c0 6 4 10 10 10h64c6 0 10 -4 10 -10v-459c0 -6 -4 -10 -10 -10zM355 557h-45
c-6 0 -9 4 -6 10l66 123c4 6 8 10 16 10h57c6 0 8 -5 5 -10l-77 -124c-4 -7 -8 -9 -16 -9zM213 557h-45c-6 0 -9 4 -6 10l66 123c4 6 8 10 16 10h57c6 0 8 -5 5 -10l-77 -124c-4 -7 -8 -9 -16 -9z" />
    <glyph glyph-name="uogonek" unicode="&#x173;" horiz-adv-x="540" 
d="M382 -182c-50 0 -83 28 -83 79c0 38 20 65 76 106c-2 2 -2 4 -2 8v44h-1c-25 -40 -69 -66 -131 -66c-105 0 -166 72 -166 181v299c0 6 4 10 10 10h64c6 0 10 -4 10 -10v-279c0 -78 35 -123 106 -123c65 0 108 46 108 118v284c0 6 4 10 10 10h64c6 0 10 -4 10 -10v-459
c0 -6 -1 -8 -5 -10c-65 -43 -83 -66 -83 -89c0 -17 10 -27 27 -27c10 0 17 3 27 8c5 3 10 2 13 -4l17 -35c3 -5 1 -10 -4 -14c-16 -12 -43 -21 -67 -21z" />
    <glyph glyph-name="wacute" unicode="&#x1e83;" horiz-adv-x="745" 
d="M398 557h-47c-6 0 -9 4 -6 10l76 123c4 7 9 10 17 10h66c6 0 9 -5 5 -10l-92 -123c-6 -8 -10 -10 -19 -10zM551 0h-57c-6 0 -10 4 -12 10l-108 343h-2l-109 -343c-2 -6 -6 -10 -12 -10h-58c-6 0 -10 4 -12 10l-150 459c-2 6 1 10 7 10h68c7 0 10 -2 13 -10l106 -346h2
l108 346c2 7 6 10 12 10h52c6 0 11 -3 13 -10l109 -346h2l103 346c2 8 6 10 13 10h68c6 0 9 -4 7 -10l-151 -459c-2 -6 -5 -10 -12 -10z" />
    <glyph glyph-name="wcircumflex" unicode="&#x175;" horiz-adv-x="745" 
d="M500 557h-45c-8 0 -12 2 -19 10l-63 70h-2l-64 -70c-7 -8 -10 -10 -19 -10h-45c-6 0 -8 5 -4 10l95 123c5 7 9 10 16 10h43c7 0 11 -3 16 -10l95 -123c4 -5 2 -10 -4 -10zM551 0h-57c-6 0 -10 4 -12 10l-108 343h-2l-109 -343c-2 -6 -6 -10 -12 -10h-58
c-6 0 -10 4 -12 10l-150 459c-2 6 1 10 7 10h68c7 0 10 -2 13 -10l106 -346h2l108 346c2 7 6 10 12 10h52c6 0 11 -3 13 -10l109 -346h2l103 346c2 8 6 10 13 10h68c6 0 9 -4 7 -10l-151 -459c-2 -6 -5 -10 -12 -10z" />
    <glyph glyph-name="wdieresis" unicode="&#x1e85;" horiz-adv-x="745" 
d="M500 587h-59c-6 0 -10 4 -10 10v73c0 6 4 10 10 10h59c6 0 10 -4 10 -10v-73c0 -6 -4 -10 -10 -10zM303 587h-59c-6 0 -10 4 -10 10v73c0 6 4 10 10 10h59c6 0 10 -4 10 -10v-73c0 -6 -4 -10 -10 -10zM551 0h-57c-6 0 -10 4 -12 10l-108 343h-2l-109 -343
c-2 -6 -6 -10 -12 -10h-58c-6 0 -10 4 -12 10l-150 459c-2 6 1 10 7 10h68c7 0 10 -2 13 -10l106 -346h2l108 346c2 7 6 10 12 10h52c6 0 11 -3 13 -10l109 -346h2l103 346c2 8 6 10 13 10h68c6 0 9 -4 7 -10l-151 -459c-2 -6 -5 -10 -12 -10z" />
    <glyph glyph-name="wgrave" unicode="&#x1e81;" horiz-adv-x="745" 
d="M551 0h-57c-6 0 -10 4 -12 10l-108 343h-2l-109 -343c-2 -6 -6 -10 -12 -10h-58c-6 0 -10 4 -12 10l-150 459c-2 6 1 10 7 10h68c7 0 10 -2 13 -10l106 -346h2l108 346c2 7 6 10 12 10h52c6 0 11 -3 13 -10l109 -346h2l103 346c2 8 6 10 13 10h68c6 0 9 -4 7 -10
l-151 -459c-2 -6 -5 -10 -12 -10zM395 557h-47c-9 0 -13 2 -19 10l-92 123c-4 5 -1 10 5 10h66c8 0 14 -3 18 -10l75 -123c3 -6 0 -10 -6 -10z" />
    <glyph glyph-name="yacute" unicode="&#xfd;" horiz-adv-x="477" 
d="M112 -180h-26c-6 0 -10 4 -10 10v58c0 6 4 10 10 10h18c39 0 60 17 81 72l16 44l-176 455c-2 6 1 10 8 10h70c6 0 10 -3 12 -10l126 -346h2l121 346c2 7 6 10 12 10h68c6 0 10 -4 8 -10l-189 -506c-42 -113 -79 -143 -151 -143zM254 557h-47c-6 0 -9 4 -6 10l76 123
c4 7 9 10 17 10h66c6 0 9 -5 5 -10l-92 -123c-6 -8 -10 -10 -19 -10z" />
    <glyph glyph-name="ycircumflex" unicode="&#x177;" horiz-adv-x="477" 
d="M112 -180h-26c-6 0 -10 4 -10 10v58c0 6 4 10 10 10h18c39 0 60 17 81 72l16 44l-176 455c-2 6 1 10 8 10h70c6 0 10 -3 12 -10l126 -346h2l121 346c2 7 6 10 12 10h68c6 0 10 -4 8 -10l-189 -506c-42 -113 -79 -143 -151 -143zM369 557h-45c-8 0 -12 2 -19 10l-63 70h-2
l-64 -70c-7 -8 -10 -10 -19 -10h-45c-6 0 -8 5 -4 10l95 123c5 7 9 10 16 10h43c7 0 11 -3 16 -10l95 -123c4 -5 2 -10 -4 -10z" />
    <glyph glyph-name="ydieresis" unicode="&#xff;" horiz-adv-x="477" 
d="M112 -180h-26c-6 0 -10 4 -10 10v58c0 6 4 10 10 10h18c39 0 60 17 81 72l16 44l-176 455c-2 6 1 10 8 10h70c6 0 10 -3 12 -10l126 -346h2l121 346c2 7 6 10 12 10h68c6 0 10 -4 8 -10l-189 -506c-42 -113 -79 -143 -151 -143zM368 587h-59c-6 0 -10 4 -10 10v73
c0 6 4 10 10 10h59c6 0 10 -4 10 -10v-73c0 -6 -4 -10 -10 -10zM171 587h-59c-6 0 -10 4 -10 10v73c0 6 4 10 10 10h59c6 0 10 -4 10 -10v-73c0 -6 -4 -10 -10 -10z" />
    <glyph glyph-name="ygrave" unicode="&#x1ef3;" horiz-adv-x="477" 
d="M112 -180h-26c-6 0 -10 4 -10 10v58c0 6 4 10 10 10h18c39 0 60 17 81 72l16 44l-176 455c-2 6 1 10 8 10h70c6 0 10 -3 12 -10l126 -346h2l121 346c2 7 6 10 12 10h68c6 0 10 -4 8 -10l-189 -506c-42 -113 -79 -143 -151 -143zM282 557h-47c-9 0 -13 2 -19 10l-92 123
c-4 5 -1 10 5 10h66c8 0 14 -3 18 -10l75 -123c3 -6 0 -10 -6 -10z" />
    <glyph glyph-name="zacute" unicode="&#x17a;" horiz-adv-x="477" 
d="M248 557h-47c-6 0 -9 4 -6 10l76 123c4 7 9 10 17 10h66c6 0 9 -5 5 -10l-92 -123c-6 -8 -10 -10 -19 -10zM412 0h-347c-6 0 -10 4 -10 10v53c0 4 1 8 4 11l263 327v2h-244c-6 0 -10 4 -10 10v56c0 6 4 10 10 10h334c6 0 10 -4 10 -10v-56c0 -5 -1 -7 -4 -11l-261 -324
v-2h255c6 0 10 -4 10 -10v-56c0 -6 -4 -10 -10 -10z" />
    <glyph glyph-name="zcaron" unicode="&#x17e;" horiz-adv-x="477" 
d="M262 555h-43c-7 0 -11 3 -16 10l-95 124c-4 5 -2 10 4 10h45c9 0 12 -2 19 -10l64 -71h2l63 71c7 8 11 10 19 10h45c6 0 8 -5 4 -10l-95 -124c-5 -7 -9 -10 -16 -10zM412 0h-347c-6 0 -10 4 -10 10v53c0 4 1 8 4 11l263 327v2h-244c-6 0 -10 4 -10 10v56c0 6 4 10 10 10
h334c6 0 10 -4 10 -10v-56c0 -5 -1 -7 -4 -11l-261 -324v-2h255c6 0 10 -4 10 -10v-56c0 -6 -4 -10 -10 -10z" />
    <glyph glyph-name="zdotaccent" unicode="&#x17c;" horiz-adv-x="477" 
d="M412 0h-347c-6 0 -10 4 -10 10v53c0 4 1 8 4 11l263 327v2h-244c-6 0 -10 4 -10 10v56c0 6 4 10 10 10h334c6 0 10 -4 10 -10v-56c0 -5 -1 -7 -4 -11l-261 -324v-2h255c6 0 10 -4 10 -10v-56c0 -6 -4 -10 -10 -10zM275 587h-69c-6 0 -10 4 -10 10v73c0 6 4 10 10 10h69
c6 0 10 -4 10 -10v-73c0 -6 -4 -10 -10 -10z" />
    <glyph glyph-name="grave.cap" horiz-adv-x="421" 
d="M302 762h-49c-8 0 -11 1 -18 9l-107 107c-5 5 -2 10 4 10h70c9 0 14 -4 19 -10l85 -106c5 -5 2 -10 -4 -10z" />
    <glyph glyph-name="acute" unicode="&#xb4;" horiz-adv-x="421" 
d="M182 557h-47c-6 0 -9 4 -6 10l76 123c4 7 9 10 17 10h66c6 0 9 -5 5 -10l-92 -123c-6 -8 -10 -10 -19 -10z" />
    <glyph glyph-name="acute.cap" horiz-adv-x="421" 
d="M181 762h-50c-6 0 -8 5 -4 10l86 106c5 6 9 10 18 10h70c6 0 9 -5 5 -10l-107 -107c-7 -8 -11 -9 -18 -9z" />
    <glyph glyph-name="circumflex" unicode="&#x2c6;" horiz-adv-x="421" 
d="M339 557h-45c-8 0 -12 2 -19 10l-63 70h-2l-64 -70c-7 -8 -10 -10 -19 -10h-45c-6 0 -8 5 -4 10l95 123c5 7 9 10 16 10h43c7 0 11 -3 16 -10l95 -123c4 -5 2 -10 -4 -10z" />
    <glyph glyph-name="circumflex.cap" horiz-adv-x="421" 
d="M339 754h-45c-8 0 -12 2 -19 10l-63 70h-2l-64 -70c-7 -8 -10 -10 -19 -10h-45c-6 0 -8 5 -4 10l95 123c5 7 9 10 16 10h43c7 0 11 -3 16 -10l95 -123c4 -5 2 -10 -4 -10z" />
    <glyph glyph-name="caron" unicode="&#x2c7;" horiz-adv-x="421" 
d="M232 555h-43c-7 0 -11 3 -16 10l-95 124c-4 5 -2 10 4 10h45c9 0 12 -2 19 -10l64 -71h2l63 71c7 8 11 10 19 10h45c6 0 8 -5 4 -10l-95 -124c-5 -7 -9 -10 -16 -10z" />
    <glyph glyph-name="caron.cap" horiz-adv-x="421" 
d="M232 752h-43c-7 0 -11 3 -16 10l-95 124c-4 5 -2 10 4 10h45c9 0 12 -2 19 -10l64 -71h2l63 71c7 8 11 10 19 10h45c6 0 8 -5 4 -10l-95 -124c-5 -7 -9 -10 -16 -10z" />
    <glyph glyph-name="caron.alt" horiz-adv-x="421" 
d="M180 517c-6 0 -10 5 -10 11v142c0 6 4 10 10 10h60c6 0 10 -4 10 -10v-64c0 -8 -1 -13 -6 -20l-50 -61c-5 -6 -9 -8 -14 -8z" />
    <glyph glyph-name="tilde" unicode="&#x2dc;" horiz-adv-x="421" 
d="M265 576c-24 0 -42 9 -63 21c-18 10 -33 18 -53 18c-26 0 -44 -15 -63 -32c-4 -4 -8 -2 -8 2v48c0 7 1 11 7 18c18 18 41 32 68 32c25 0 43 -9 63 -21c18 -10 33 -18 53 -18c26 0 44 15 63 32c4 4 8 2 8 -2v-48c0 -7 -1 -11 -7 -18c-18 -18 -41 -32 -68 -32z" />
    <glyph glyph-name="tilde.cap" horiz-adv-x="421" 
d="M265 767c-24 0 -42 9 -63 21c-18 10 -33 18 -53 18c-26 0 -44 -15 -63 -32c-4 -4 -8 -2 -8 2v48c0 8 1 11 7 18c18 19 41 32 68 32c25 0 43 -9 63 -20c18 -11 33 -18 53 -18c26 0 44 14 63 32c4 4 8 2 8 -3v-48c0 -7 -1 -11 -7 -17c-18 -19 -41 -33 -68 -33z" />
    <glyph glyph-name="dieresis" unicode="&#xa8;" horiz-adv-x="421" 
d="M339 587h-59c-6 0 -10 4 -10 10v73c0 6 4 10 10 10h59c6 0 10 -4 10 -10v-73c0 -6 -4 -10 -10 -10zM142 587h-59c-6 0 -10 4 -10 10v73c0 6 4 10 10 10h59c6 0 10 -4 10 -10v-73c0 -6 -4 -10 -10 -10z" />
    <glyph glyph-name="dieresis.cap" horiz-adv-x="421" 
d="M339 777h-56c-6 0 -10 4 -10 10v72c0 6 4 10 10 10h56c6 0 10 -4 10 -10v-72c0 -6 -4 -10 -10 -10zM139 777h-56c-6 0 -10 4 -10 10v72c0 6 4 10 10 10h56c6 0 10 -4 10 -10v-72c0 -6 -4 -10 -10 -10z" />
    <glyph glyph-name="macron" unicode="&#xaf;" horiz-adv-x="421" 
d="M338 601h-255c-6 0 -10 4 -10 10v45c0 6 4 10 10 10h255c6 0 10 -4 10 -10v-45c0 -6 -4 -10 -10 -10z" />
    <glyph glyph-name="macron.cap" horiz-adv-x="421" 
d="M338 790h-255c-6 0 -10 4 -10 10v45c0 6 4 10 10 10h255c6 0 10 -4 10 -10v-45c0 -6 -4 -10 -10 -10z" />
    <glyph glyph-name="uni02C9" unicode="&#x2c9;" horiz-adv-x="421" 
d="M338 790h-255c-6 0 -10 4 -10 10v45c0 6 4 10 10 10h255c6 0 10 -4 10 -10v-45c0 -6 -4 -10 -10 -10z" />
    <glyph glyph-name="breve" unicode="&#x2d8;" horiz-adv-x="421" 
d="M211 561c-78 0 -129 47 -136 113c0 6 3 10 9 10h36c6 0 9 -3 11 -10c11 -34 37 -52 80 -52c42 0 69 18 79 52c2 7 6 10 12 10h35c6 0 9 -4 9 -10c-7 -66 -58 -113 -135 -113z" />
    <glyph glyph-name="breve.cap" horiz-adv-x="421" 
d="M211 761c-78 0 -129 47 -136 113c0 6 3 10 9 10h36c6 0 9 -4 11 -10c11 -35 37 -52 80 -52c42 0 69 17 79 52c2 6 6 10 12 10h35c6 0 9 -4 9 -10c-7 -66 -58 -113 -135 -113z" />
    <glyph glyph-name="ring" unicode="&#x2da;" horiz-adv-x="421" 
d="M211 535c-53 0 -95 40 -95 94s42 94 95 94s95 -40 95 -94s-42 -94 -95 -94zM211 576c29 0 51 23 51 53s-22 53 -51 53s-51 -23 -51 -53s22 -53 51 -53z" />
    <glyph glyph-name="ring.cap" horiz-adv-x="421" 
d="M211 729c-53 0 -95 40 -95 94s42 94 95 94s95 -40 95 -94s-42 -94 -95 -94zM211 770c29 0 51 23 51 53s-22 53 -51 53s-51 -23 -51 -53s22 -53 51 -53z" />
    <glyph glyph-name="hungarumlaut" unicode="&#x2dd;" horiz-adv-x="421" 
d="M264 557h-45c-6 0 -9 4 -6 10l66 123c4 6 8 10 16 10h57c6 0 8 -5 5 -10l-77 -124c-4 -7 -8 -9 -16 -9zM122 557h-45c-6 0 -9 4 -6 10l66 123c4 6 8 10 16 10h57c6 0 8 -5 5 -10l-77 -124c-4 -7 -8 -9 -16 -9z" />
    <glyph glyph-name="hungarumlaut.cap" horiz-adv-x="421" 
d="M270 764h-45c-6 0 -8 4 -4 10l66 105c4 7 8 10 16 10h57c6 0 8 -5 4 -10l-76 -106c-5 -7 -9 -9 -18 -9zM128 764h-45c-6 0 -8 4 -4 10l66 105c4 7 8 10 16 10h57c6 0 8 -5 4 -10l-76 -106c-5 -7 -9 -9 -18 -9z" />
    <glyph glyph-name="dotaccent" unicode="&#x2d9;" horiz-adv-x="421" 
d="M245 587h-69c-6 0 -10 4 -10 10v73c0 6 4 10 10 10h69c6 0 10 -4 10 -10v-73c0 -6 -4 -10 -10 -10z" />
    <glyph glyph-name="dotaccent.cap" horiz-adv-x="421" 
d="M245 777h-69c-6 0 -10 4 -10 10v72c0 6 4 10 10 10h69c6 0 10 -4 10 -10v-72c0 -6 -4 -10 -10 -10z" />
    <glyph glyph-name="cedilla" unicode="&#xb8;" horiz-adv-x="421" 
d="M212 -152h-55c-6 0 -9 4 -7 10l57 142c3 7 6 10 13 10h47c6 0 9 -4 7 -10l-46 -142c-2 -7 -7 -10 -16 -10z" />
    <glyph glyph-name="ogonek" unicode="&#x2db;" horiz-adv-x="421" 
d="M205 -182c-50 0 -84 28 -84 79c0 37 20 68 69 103c10 7 16 10 25 10h58c6 0 7 -7 2 -10c-65 -42 -83 -66 -83 -89c0 -17 10 -27 26 -27c10 0 17 3 27 8c6 3 10 2 13 -4l18 -35c3 -5 1 -10 -4 -14c-17 -12 -43 -21 -67 -21z" />
    <glyph glyph-name="commaaccent" horiz-adv-x="421" 
d="M180 -213c-5 0 -9 4 -9 10v140c0 6 4 10 10 10h60c6 0 10 -4 10 -10v-61c0 -8 -1 -13 -6 -20l-51 -61c-4 -6 -9 -8 -14 -8z" />
    <glyph glyph-name="commaaccent.alt" horiz-adv-x="421" 
d="M242 732c5 0 9 -4 9 -10v-140c0 -6 -4 -10 -10 -10h-60c-6 0 -10 4 -10 10v61c0 8 1 13 6 20l51 61c5 6 9 8 14 8z" />
    <glyph glyph-name="ellipsis" unicode="&#x2026;" horiz-adv-x="708" 
d="M628 0h-76c-6 0 -10 4 -10 10v86c0 6 4 10 10 10h76c6 0 10 -4 10 -10v-86c0 -6 -4 -10 -10 -10zM392 0h-76c-6 0 -10 4 -10 10v86c0 6 4 10 10 10h76c6 0 10 -4 10 -10v-86c0 -6 -4 -10 -10 -10zM156 0h-76c-6 0 -10 4 -10 10v86c0 6 4 10 10 10h76c6 0 10 -4 10 -10
v-86c0 -6 -4 -10 -10 -10z" />
    <glyph glyph-name="uni00AD" unicode="&#xad;" horiz-adv-x="380" 
d="M323 227h-266c-6 0 -10 4 -10 10v58c0 6 4 10 10 10h266c6 0 10 -4 10 -10v-58c0 -6 -4 -10 -10 -10z" />
    <glyph glyph-name="exclamdown" unicode="&#xa1;" horiz-adv-x="288" 
d="M165 295c6 0 10 -4 10 -10l16 -476c0 -6 -4 -10 -10 -10h-74c-6 0 -10 4 -10 10l16 476c0 6 4 10 10 10h42zM192 469v-86c0 -6 -4 -10 -10 -10h-76c-6 0 -10 4 -10 10v86c0 6 4 10 10 10h76c6 0 10 -4 10 -10z" />
    <glyph glyph-name="questiondown" unicode="&#xbf;" horiz-adv-x="456" 
d="M266 297c6 0 10 -4 10 -10v-41c0 -40 -9 -61 -30 -90l-67 -92c-35 -48 -47 -71 -47 -105c0 -57 40 -93 97 -93c56 0 92 34 104 95c1 6 5 9 11 8l63 -11c6 -1 9 -5 8 -11c-15 -96 -84 -159 -188 -159c-108 0 -181 71 -181 170c0 48 17 83 51 130l67 92c20 27 26 41 26 75
v32c0 6 4 10 10 10h66zM281 469v-86c0 -6 -4 -10 -10 -10h-76c-6 0 -10 4 -10 10v86c0 6 4 10 10 10h76c6 0 10 -4 10 -10z" />
    <glyph glyph-name="quoteleft" unicode="&#x2018;" horiz-adv-x="215" 
d="M138 503h-61c-6 0 -10 4 -10 10v83c0 10 2 14 7 21l52 57c4 5 8 8 13 8c6 0 9 -4 9 -10v-159c0 -6 -4 -10 -10 -10z" />
    <glyph glyph-name="quoteright" unicode="&#x2019;" horiz-adv-x="215" 
d="M76 501c-5 0 -9 4 -9 10v159c0 6 4 10 10 10h61c6 0 10 -4 10 -10v-83c0 -10 -1 -14 -6 -21l-52 -57c-4 -5 -9 -8 -14 -8z" />
    <glyph glyph-name="quotedblleft" unicode="&#x201c;" horiz-adv-x="372" 
d="M295 503h-61c-6 0 -10 4 -10 10v83c0 10 1 14 6 21l52 57c4 5 9 8 14 8s9 -4 9 -10v-159c0 -6 -4 -10 -10 -10zM138 503h-61c-6 0 -10 4 -10 10v83c0 10 2 14 7 21l52 57c4 5 8 8 13 8c6 0 9 -4 9 -10v-159c0 -6 -4 -10 -10 -10z" />
    <glyph glyph-name="quotedblright" unicode="&#x201d;" horiz-adv-x="372" 
d="M233 501c-6 0 -9 4 -9 10v159c0 6 4 10 10 10h61c6 0 10 -4 10 -10v-83c0 -10 -2 -14 -7 -21l-52 -57c-4 -5 -8 -8 -13 -8zM76 501c-5 0 -9 4 -9 10v159c0 6 4 10 10 10h61c6 0 10 -4 10 -10v-83c0 -10 -1 -15 -6 -21l-52 -57c-4 -6 -9 -8 -14 -8z" />
    <glyph glyph-name="quotesinglbase" unicode="&#x201a;" horiz-adv-x="215" 
d="M76 -87c-5 0 -9 4 -9 10v159c0 6 4 10 10 10h61c6 0 10 -4 10 -10v-83c0 -10 -1 -15 -6 -21l-52 -57c-4 -5 -9 -8 -14 -8z" />
    <glyph glyph-name="quotedblbase" unicode="&#x201e;" horiz-adv-x="372" 
d="M233 -87c-6 0 -9 4 -9 10v159c0 6 4 10 10 10h61c6 0 10 -4 10 -10v-83c0 -10 -2 -14 -7 -21l-52 -57c-4 -5 -8 -8 -13 -8zM76 -87c-5 0 -9 4 -9 10v159c0 6 4 10 10 10h61c6 0 10 -4 10 -10v-83c0 -10 -1 -14 -6 -21l-52 -57c-4 -5 -9 -8 -14 -8z" />
    <glyph glyph-name="guilsinglleft" unicode="&#x2039;" horiz-adv-x="320" 
d="M240 65l-189 192c-4 4 -4 10 0 14l189 192c4 4 10 2 10 -4v-73c0 -8 -2 -12 -9 -20l-99 -98c-3 -3 -3 -5 0 -8l99 -98c7 -8 9 -12 9 -20v-73c0 -6 -6 -8 -10 -4z" />
    <glyph glyph-name="guilsinglright" unicode="&#x203a;" horiz-adv-x="320" 
d="M80 65c-4 -4 -10 -2 -10 4v73c0 8 2 12 9 20l99 98c3 3 3 5 0 8l-99 98c-7 8 -9 12 -9 20v73c0 6 6 8 10 4l189 -192c4 -4 4 -10 0 -14z" />
    <glyph glyph-name="guillemotleft" unicode="&#xab;" horiz-adv-x="535" 
d="M455 65l-189 192c-4 4 -4 10 0 14l189 192c4 4 10 2 10 -4v-73c0 -8 -2 -12 -9 -20l-99 -98c-3 -3 -3 -5 0 -8l99 -98c7 -8 9 -12 9 -20v-73c0 -6 -6 -8 -10 -4zM240 65l-189 192c-4 4 -4 10 0 14l189 192c4 4 10 2 10 -4v-73c0 -8 -2 -12 -9 -20l-99 -98
c-3 -3 -3 -5 0 -8l99 -98c7 -8 9 -12 9 -20v-73c0 -6 -6 -8 -10 -4z" />
    <glyph glyph-name="guillemotright" unicode="&#xbb;" horiz-adv-x="535" 
d="M295 65c-4 -4 -10 -2 -10 4v73c0 8 2 12 9 20l99 98c3 3 3 5 0 8l-99 98c-7 8 -9 12 -9 20v73c0 6 6 8 10 4l189 -192c4 -4 4 -10 0 -14zM80 65c-4 -4 -10 -2 -10 4v73c0 8 2 12 9 20l99 98c3 3 3 5 0 8l-99 98c-7 8 -9 12 -9 20v73c0 6 6 8 10 4l189 -192
c4 -4 4 -10 0 -14z" />
    <glyph glyph-name="endash" unicode="&#x2013;" horiz-adv-x="512" 
d="M478 229h-444c-6 0 -10 4 -10 10v54c0 6 4 10 10 10h444c6 0 10 -4 10 -10v-54c0 -6 -4 -10 -10 -10z" />
    <glyph glyph-name="emdash" unicode="&#x2014;" horiz-adv-x="850" 
d="M816 229h-782c-6 0 -10 4 -10 10v54c0 6 4 10 10 10h782c6 0 10 -4 10 -10v-54c0 -6 -4 -10 -10 -10z" />
    <glyph glyph-name="bullet" unicode="&#x2022;" horiz-adv-x="442" 
d="M221 180c-74 0 -127 53 -127 128s53 128 127 128c73 0 127 -53 127 -128s-54 -128 -127 -128z" />
    <glyph glyph-name="periodcentered" unicode="&#xb7;" horiz-adv-x="236" 
d="M156 212h-76c-6 0 -10 4 -10 10v86c0 6 4 10 10 10h76c6 0 10 -4 10 -10v-86c0 -6 -4 -10 -10 -10z" />
    <glyph glyph-name="uni2219" unicode="&#x2219;" horiz-adv-x="236" 
d="M156 212h-76c-6 0 -10 4 -10 10v86c0 6 4 10 10 10h76c6 0 10 -4 10 -10v-86c0 -6 -4 -10 -10 -10z" />
    <glyph glyph-name="dagger" unicode="&#x2020;" horiz-adv-x="494" 
d="M278 -180h-62c-6 0 -10 4 -10 10v528c0 4 -2 6 -6 6h-140c-6 0 -10 4 -10 10v56c0 6 4 10 10 10h140c4 0 6 2 6 6v224c0 6 4 10 10 10h62c6 0 10 -4 10 -10v-224c0 -4 2 -6 6 -6h140c6 0 10 -4 10 -10v-56c0 -6 -4 -10 -10 -10h-140c-4 0 -6 -2 -6 -6v-528
c0 -6 -4 -10 -10 -10z" />
    <glyph glyph-name="daggerdbl" unicode="&#x2021;" horiz-adv-x="494" 
d="M278 -180h-62c-6 0 -10 4 -10 10v193c0 4 -2 6 -6 6h-140c-6 0 -10 4 -10 10v56c0 6 4 10 10 10h140c4 0 6 2 6 6v278c0 4 -2 6 -6 6h-140c-6 0 -10 4 -10 10v56c0 6 4 10 10 10h140c4 0 6 2 6 6v193c0 6 4 10 10 10h62c6 0 10 -4 10 -10v-193c0 -4 2 -6 6 -6h140
c6 0 10 -4 10 -10v-56c0 -6 -4 -10 -10 -10h-140c-4 0 -6 -2 -6 -6v-278c0 -4 2 -6 6 -6h140c6 0 10 -4 10 -10v-56c0 -6 -4 -10 -10 -10h-140c-4 0 -6 -2 -6 -6v-193c0 -6 -4 -10 -10 -10z" />
    <glyph glyph-name="section" unicode="&#xa7;" horiz-adv-x="556" 
d="M275 -191c-107 0 -163 57 -169 140c-1 5 1 10 7 11l58 13c6 1 10 -2 11 -7c2 -57 36 -86 92 -86c57 0 92 30 92 83c0 56 -34 87 -129 107c-99 22 -144 86 -144 182c0 74 35 137 100 160v1c-55 29 -77 68 -77 129c0 83 68 149 164 149c108 0 161 -66 163 -135
c0 -6 -2 -10 -7 -11l-57 -12c-6 -2 -11 2 -11 7c-3 47 -32 80 -86 80c-53 0 -87 -29 -87 -78c0 -57 32 -86 124 -108c98 -23 144 -85 144 -182c0 -75 -38 -137 -99 -159v-1c53 -25 81 -64 81 -133c0 -88 -71 -150 -170 -150zM278 141c63 0 106 39 106 111s-43 111 -106 111
s-106 -39 -106 -111s43 -111 106 -111z" />
    <glyph glyph-name="paragraph" unicode="&#xb6;" horiz-adv-x="603" 
d="M505 -180h-54c-6 0 -10 4 -10 10v770c0 4 -2 6 -6 6h-84c-4 0 -6 -2 -6 -6v-770c0 -6 -4 -10 -10 -10h-54c-6 0 -10 4 -10 10v432c-120 7 -196 95 -196 209c0 116 79 209 223 209h207c6 0 10 -4 10 -10v-840c0 -6 -4 -10 -10 -10z" />
    <glyph glyph-name="brokenbar" unicode="&#xa6;" horiz-adv-x="290" 
d="M171 388h-52c-6 0 -10 4 -10 10v332c0 6 4 10 10 10h52c6 0 10 -4 10 -10v-332c0 -6 -4 -10 -10 -10zM171 -84h-52c-6 0 -10 4 -10 10v336c0 6 4 10 10 10h52c6 0 10 -4 10 -10v-336c0 -6 -4 -10 -10 -10z" />
    <glyph glyph-name="copyright" unicode="&#xa9;" horiz-adv-x="828" 
d="M414 -11c-198 0 -351 153 -351 351s153 351 351 351s351 -153 351 -351s-153 -351 -351 -351zM414 50c164 0 288 124 288 290s-124 290 -288 290s-288 -124 -288 -290s124 -290 288 -290zM423 143c-75 0 -131 36 -153 105c-6 20 -11 44 -11 92s5 72 11 92
c22 69 78 105 153 105c59 0 104 -26 130 -63c4 -5 3 -10 -2 -14l-32 -29c-4 -3 -10 -2 -14 2c-20 27 -43 42 -81 42c-45 0 -76 -21 -90 -62c-5 -15 -7 -31 -7 -73s2 -58 7 -73c14 -41 45 -62 90 -62c38 0 61 15 81 42c4 4 10 5 14 2l32 -29c5 -4 6 -9 2 -14
c-26 -37 -71 -63 -130 -63z" />
    <glyph glyph-name="registered" unicode="&#xae;" horiz-adv-x="452" 
d="M226 301c-108 0 -191 83 -191 192c0 108 83 191 191 191c109 0 191 -83 191 -191c0 -109 -82 -192 -191 -192zM226 334c90 0 157 68 157 159s-67 158 -157 158s-157 -67 -157 -158s67 -159 157 -159zM183 388h-24c-4 0 -7 2 -7 7v198c0 5 3 7 7 7h80c46 0 73 -23 73 -63
c0 -29 -16 -50 -42 -59l43 -83c2 -4 0 -7 -4 -7h-28c-4 0 -7 2 -9 7l-40 78h-38c-3 0 -4 -1 -4 -4v-74c0 -5 -3 -7 -7 -7zM239 507c24 0 35 11 35 30s-11 29 -35 29h-45c-3 0 -4 -1 -4 -4v-51c0 -2 1 -4 4 -4h45z" />
    <glyph glyph-name="trademark" unicode="&#x2122;" horiz-adv-x="833" 
d="M771 286h-41c-6 0 -10 4 -10 10v241h-2l-89 -185c-3 -6 -7 -10 -13 -10h-33c-6 0 -9 4 -12 10l-89 185h-2v-241c0 -6 -4 -10 -10 -10h-41c-6 0 -10 4 -10 10v374c0 6 4 10 10 10h39c6 0 10 -3 13 -9l118 -252h3l116 252c3 6 8 9 14 9h39c6 0 10 -4 10 -10v-374
c0 -6 -4 -10 -10 -10zM217 286h-45c-6 0 -10 4 -10 10v320c0 4 -2 6 -6 6h-105c-6 0 -10 4 -10 10v38c0 6 4 10 10 10h287c6 0 10 -4 10 -10v-38c0 -6 -4 -10 -10 -10h-105c-4 0 -6 -2 -6 -6v-320c0 -6 -4 -10 -10 -10z" />
    <glyph glyph-name="currency" unicode="&#xa4;" horiz-adv-x="538" 
d="M493 138l-37 -40c-5 -4 -10 -4 -14 0l-62 61c-31 -21 -70 -33 -112 -33s-81 12 -112 34l-61 -61c-4 -4 -9 -4 -14 0l-37 39c-4 5 -4 10 0 14l60 60c-21 31 -32 69 -32 111c0 41 11 80 32 111l-60 61c-4 4 -4 10 0 14l37 39c5 5 10 4 14 0l61 -62c32 21 70 34 112 34
s80 -13 112 -34l61 62c4 4 10 5 14 0l38 -39c4 -4 4 -10 0 -14l-61 -61c20 -31 32 -70 32 -111c0 -42 -12 -79 -32 -110l61 -61c5 -5 5 -10 0 -14zM268 196c73 0 126 55 126 127s-53 127 -126 127c-72 0 -125 -55 -125 -127s53 -127 125 -127z" />
    <glyph glyph-name="Euro" unicode="&#x20ac;" 
d="M309 67c58 0 91 30 115 75c3 6 8 7 13 5l54 -27c5 -3 6 -7 3 -13c-31 -66 -90 -118 -185 -118c-96 0 -164 48 -193 137c-9 28 -13 56 -13 116c0 4 -2 6 -6 6h-42c-6 0 -10 4 -10 10v42c0 6 4 10 10 10h42c4 0 6 2 6 6v54c0 4 -2 6 -6 6h-42c-6 0 -10 4 -10 10v42
c0 6 4 10 10 10h42c4 0 6 2 6 6c0 51 4 82 13 110c29 89 97 137 193 137c95 0 154 -52 185 -118c3 -6 2 -10 -3 -13l-54 -27c-5 -2 -10 -1 -13 5c-24 45 -57 75 -115 75c-55 0 -93 -26 -110 -79c-7 -20 -10 -45 -10 -90c0 -4 2 -6 6 -6h191c6 0 10 -4 10 -10l-10 -42
c-2 -7 -4 -10 -10 -10h-181c-4 0 -6 -2 -6 -6v-54c0 -4 2 -6 6 -6h171c6 0 10 -4 10 -10l-10 -42c-2 -7 -4 -10 -10 -10h-161c-4 0 -6 -2 -6 -6c0 -55 3 -76 10 -96c17 -53 55 -79 110 -79z" />
    <glyph glyph-name="cent" unicode="&#xa2;" 
d="M313 570v-81c67 -4 117 -34 149 -80c3 -5 3 -9 -3 -14l-44 -36c-5 -4 -10 -4 -14 1c-25 30 -48 47 -88 51v-343c40 4 63 20 88 51c4 5 9 5 14 1l44 -36c6 -5 6 -9 3 -14c-32 -46 -82 -76 -149 -80v-80c0 -6 -4 -10 -10 -10h-26c-6 0 -10 4 -10 10v81
c-82 8 -142 52 -166 127c-9 29 -15 68 -15 122c0 53 6 92 15 121c24 75 84 119 166 127v82c0 6 4 10 10 10h26c6 0 10 -4 10 -10zM183 142c13 -42 42 -66 84 -73v341c-42 -7 -71 -32 -84 -73c-8 -25 -11 -55 -11 -97c0 -43 3 -73 11 -98z" />
    <glyph glyph-name="sterling" unicode="&#xa3;" 
d="M453 0h-345c-6 0 -10 4 -10 10v56c0 5 2 9 5 12c25 25 36 42 36 96v105c0 4 -2 6 -6 6h-48c-6 0 -10 4 -10 10v47c0 6 4 10 10 10h48c4 0 6 2 6 6v152c0 116 64 181 164 181c85 0 140 -51 157 -124c1 -6 -3 -10 -9 -11l-61 -16c-6 -1 -10 2 -11 8c-9 38 -35 65 -76 65
c-48 0 -78 -31 -78 -90v-165c0 -4 2 -6 6 -6h127c6 0 10 -4 10 -10v-47c0 -6 -4 -10 -10 -10h-127c-4 0 -6 -2 -6 -6v-92c0 -51 -9 -83 -28 -108v-1h256c6 0 10 -4 10 -10v-58c0 -6 -4 -10 -10 -10z" />
    <glyph glyph-name="florin" unicode="&#x192;" 
d="M429 335h-104l-56 -362c-17 -112 -60 -153 -159 -153h-24c-6 0 -10 4 -10 10v56c0 6 4 10 10 10h20c50 0 71 15 81 75l56 364h-75c-6 0 -10 4 -10 10v47c0 6 4 10 10 10h85l20 127c17 107 60 151 158 151h26c6 0 10 -4 10 -10v-56c0 -6 -4 -10 -10 -10h-22
c-47 0 -71 -19 -79 -74l-20 -128h93c6 0 10 -4 10 -10v-47c0 -6 -4 -10 -10 -10z" />
    <glyph glyph-name="yen" unicode="&#xa5;" 
d="M303 0h-64c-6 0 -10 4 -10 10v132c0 4 -2 6 -6 6h-126c-6 0 -10 4 -10 10v42c0 6 4 10 10 10h126c4 0 6 2 6 6v51c0 4 -2 6 -6 6h-126c-6 0 -10 4 -10 10v42c0 6 4 10 10 10h108v2l-155 332c-3 6 0 11 7 11h68c8 0 12 -3 14 -10l133 -298h3l129 298c3 7 6 10 14 10h67
c7 0 10 -5 7 -11l-155 -332v-2h108c6 0 10 -4 10 -10v-42c0 -6 -4 -10 -10 -10h-126c-4 0 -6 -2 -6 -6v-51c0 -4 2 -6 6 -6h126c6 0 10 -4 10 -10v-42c0 -6 -4 -10 -10 -10h-126c-4 0 -6 -2 -6 -6v-132c0 -6 -4 -10 -10 -10z" />
    <glyph glyph-name="ordfeminine" unicode="&#xaa;" horiz-adv-x="343" 
d="M286 392h-46c-6 0 -10 4 -10 10v17h-1c-16 -20 -44 -32 -88 -32c-56 0 -102 28 -102 86c0 63 45 93 124 93h60c4 0 6 2 6 6v14c0 29 -16 42 -68 42c-31 0 -53 -7 -70 -17c-5 -3 -11 -2 -14 2l-19 35c-3 4 -3 10 2 14c25 16 60 26 109 26c94 0 127 -30 127 -101v-185
c0 -6 -4 -10 -10 -10zM159 442c44 0 70 16 70 46v22c0 4 -2 6 -6 6h-55c-44 0 -62 -14 -62 -38s19 -36 53 -36z" />
    <glyph glyph-name="ordmasculine" unicode="&#xba;" horiz-adv-x="351" 
d="M175 384c-65 0 -110 27 -128 84c-6 18 -9 39 -9 68s3 50 9 68c18 57 63 84 128 84c66 0 110 -27 129 -84c6 -18 9 -39 9 -68s-3 -50 -9 -68c-19 -57 -63 -84 -129 -84zM175 447c32 0 51 14 61 42c4 12 6 26 6 47s-2 35 -6 47c-10 28 -29 42 -61 42c-31 0 -50 -14 -60 -42
c-4 -12 -6 -26 -6 -47s2 -35 6 -47c10 -28 29 -42 60 -42z" />
    <glyph glyph-name="onesuperior" unicode="&#xb9;" horiz-adv-x="341" 
d="M220 430h-47c-6 0 -10 4 -10 10v315h-2l-66 -44c-5 -3 -10 0 -10 6v53c0 7 2 11 8 15l65 44c6 5 10 7 16 7h46c6 0 10 -4 10 -10v-386c0 -6 -4 -10 -10 -10z" />
    <glyph glyph-name="twosuperior" unicode="&#xb2;" horiz-adv-x="341" 
d="M288 430h-236c-6 0 -10 4 -10 10v41c0 5 2 10 7 14l149 169c18 19 31 41 31 64c0 32 -22 54 -57 54c-32 0 -54 -17 -61 -50c-1 -6 -5 -9 -11 -8l-45 10c-6 1 -9 5 -8 11c6 44 47 98 126 98c77 0 123 -51 123 -115c0 -39 -15 -68 -44 -100l-122 -135v-2h158
c6 0 10 -4 10 -10v-41c0 -6 -4 -10 -10 -10z" />
    <glyph glyph-name="threesuperior" unicode="&#xb3;" horiz-adv-x="341" 
d="M172 423c-69 0 -119 30 -133 87c-2 6 0 11 6 12l45 12c6 1 9 -1 12 -7c11 -23 33 -43 68 -43c39 0 65 26 65 62c0 37 -26 62 -69 62h-19c-6 0 -10 4 -10 10v41c0 6 4 10 10 10h15c38 0 63 22 63 57s-22 56 -59 56c-34 0 -50 -16 -60 -37c-2 -6 -6 -8 -12 -7l-42 10
c-6 1 -8 6 -7 12c10 45 52 83 123 83c78 0 125 -46 125 -112c0 -35 -17 -66 -46 -86v-1c24 -10 55 -45 55 -97c0 -75 -51 -124 -130 -124z" />
    <glyph glyph-name="fraction" unicode="&#x2044;" horiz-adv-x="155" 
d="M-101 -11h-47c-6 0 -8 5 -5 10l394 682c4 7 8 10 15 10h47c6 0 9 -5 6 -10l-395 -682c-4 -7 -7 -10 -15 -10z" />
    <glyph glyph-name="uni2215" unicode="&#x2215;" horiz-adv-x="155" 
d="M-101 -11h-47c-6 0 -8 5 -5 10l394 682c4 7 8 10 15 10h47c6 0 9 -5 6 -10l-395 -682c-4 -7 -7 -10 -15 -10z" />
    <glyph glyph-name="onehalf" unicode="&#xbd;" horiz-adv-x="870" 
d="M229 274h-47c-6 0 -10 4 -10 10v315h-2l-66 -44c-5 -3 -10 0 -10 6v53c0 7 2 11 8 15l65 44c6 5 10 7 16 7h46c6 0 10 -4 10 -10v-386c0 -6 -4 -10 -10 -10zM766 0h-236c-6 0 -10 4 -10 10v41c0 5 2 10 7 14l149 169c18 19 31 41 31 64c0 32 -22 54 -57 54
c-32 0 -54 -17 -61 -50c-1 -6 -5 -9 -11 -8l-45 10c-6 1 -9 5 -8 11c6 44 47 98 126 98c77 0 123 -51 123 -115c0 -39 -15 -68 -44 -100l-122 -135v-2h158c6 0 10 -4 10 -10v-41c0 -6 -4 -10 -10 -10zM226 -11h-47c-6 0 -8 5 -5 10l394 682c4 7 8 10 15 10h47
c6 0 9 -5 6 -10l-395 -682c-4 -7 -7 -10 -15 -10z" />
    <glyph glyph-name="onethird" unicode="&#x2153;" horiz-adv-x="881" 
d="M229 274h-47c-6 0 -10 4 -10 10v315h-2l-66 -44c-5 -3 -10 0 -10 6v53c0 7 2 11 8 15l65 44c6 5 10 7 16 7h46c6 0 10 -4 10 -10v-386c0 -6 -4 -10 -10 -10zM226 -11h-47c-6 0 -8 5 -5 10l394 682c4 7 8 10 15 10h47c6 0 9 -5 6 -10l-395 -682c-4 -7 -7 -10 -15 -10z
M657 -7c-69 0 -119 30 -133 87c-2 6 0 11 6 12l45 12c6 1 9 -1 12 -7c11 -23 33 -43 68 -43c39 0 65 26 65 62c0 37 -26 62 -69 62h-19c-6 0 -10 4 -10 10v41c0 6 4 10 10 10h15c38 0 63 22 63 57s-22 56 -59 56c-34 0 -50 -16 -60 -37c-2 -6 -6 -8 -12 -7l-42 10
c-6 1 -8 6 -7 12c10 45 52 83 123 83c78 0 125 -46 125 -112c0 -35 -17 -66 -46 -86v-1c24 -10 55 -45 55 -97c0 -75 -51 -124 -130 -124z" />
    <glyph glyph-name="onequarter" unicode="&#xbc;" horiz-adv-x="835" 
d="M229 274h-47c-6 0 -10 4 -10 10v315h-2l-66 -44c-5 -3 -10 0 -10 6v53c0 7 2 11 8 15l65 44c6 5 10 7 16 7h46c6 0 10 -4 10 -10v-386c0 -6 -4 -10 -10 -10zM689 0h-45c-6 0 -10 4 -10 10v51c0 4 -2 6 -6 6h-162c-6 0 -10 4 -10 10v40c0 7 1 10 4 16l128 263
c3 6 7 10 14 10h52c6 0 9 -4 6 -10l-128 -267v-1h96c4 0 6 2 6 6v89c0 6 4 10 10 10h45c6 0 10 -4 10 -10v-89c0 -4 2 -6 6 -6h26c6 0 10 -4 10 -10v-41c0 -6 -4 -10 -10 -10h-26c-4 0 -6 -2 -6 -6v-51c0 -6 -4 -10 -10 -10zM226 -11h-47c-6 0 -8 5 -5 10l394 682
c4 7 8 10 15 10h47c6 0 9 -5 6 -10l-395 -682c-4 -7 -7 -10 -15 -10z" />
    <glyph glyph-name="oneeighth" unicode="&#x215b;" horiz-adv-x="882" 
d="M229 274h-47c-6 0 -10 4 -10 10v315h-2l-66 -44c-5 -3 -10 0 -10 6v53c0 7 2 11 8 15l65 44c6 5 10 7 16 7h46c6 0 10 -4 10 -10v-386c0 -6 -4 -10 -10 -10zM650 -7c-80 0 -137 49 -137 123c0 45 23 79 55 98v1c-25 16 -45 44 -45 81c0 63 47 117 127 117
s128 -54 128 -117c0 -37 -21 -65 -45 -81v-1c32 -19 55 -53 55 -98c0 -74 -58 -123 -138 -123zM650 241c35 0 60 24 60 55c0 32 -25 56 -60 56c-34 0 -59 -24 -59 -56c0 -31 25 -55 59 -55zM650 54c40 0 70 27 70 64c0 38 -30 65 -70 65s-69 -27 -69 -65
c0 -37 29 -64 69 -64zM226 -11h-47c-6 0 -8 5 -5 10l394 682c4 7 8 10 15 10h47c6 0 9 -5 6 -10l-395 -682c-4 -7 -7 -10 -15 -10z" />
    <glyph glyph-name="twothirds" unicode="&#x2154;" horiz-adv-x="979" 
d="M339 274h-236c-6 0 -10 4 -10 10v41c0 5 2 10 7 14l149 169c18 19 31 41 31 64c0 32 -22 54 -57 54c-32 0 -54 -17 -61 -50c-1 -6 -5 -9 -11 -8l-45 10c-6 1 -9 5 -8 11c6 44 47 98 126 98c77 0 123 -51 123 -115c0 -39 -15 -68 -44 -100l-122 -135v-2h158
c6 0 10 -4 10 -10v-41c0 -6 -4 -10 -10 -10zM324 -11h-47c-6 0 -8 5 -5 10l394 682c4 7 8 10 15 10h47c6 0 9 -5 6 -10l-395 -682c-4 -7 -7 -10 -15 -10zM755 -7c-69 0 -119 30 -133 87c-2 6 0 11 6 12l45 12c6 1 9 -1 12 -7c11 -23 33 -43 68 -43c39 0 65 26 65 62
c0 37 -26 62 -69 62h-19c-6 0 -10 4 -10 10v41c0 6 4 10 10 10h15c38 0 63 22 63 57s-22 56 -59 56c-34 0 -50 -16 -60 -37c-2 -6 -6 -8 -12 -7l-42 10c-6 1 -8 6 -7 12c10 45 52 83 123 83c78 0 125 -46 125 -112c0 -35 -17 -66 -46 -86v-1c24 -10 55 -45 55 -97
c0 -75 -51 -124 -130 -124z" />
    <glyph glyph-name="threequarters" unicode="&#xbe;" horiz-adv-x="906" 
d="M760 0h-45c-6 0 -10 4 -10 10v51c0 4 -2 6 -6 6h-162c-6 0 -10 4 -10 10v40c0 7 1 10 4 16l128 263c3 6 7 10 14 10h52c6 0 9 -4 6 -10l-128 -267v-1h96c4 0 6 2 6 6v89c0 6 4 10 10 10h45c6 0 10 -4 10 -10v-89c0 -4 2 -6 6 -6h26c6 0 10 -4 10 -10v-41
c0 -6 -4 -10 -10 -10h-26c-4 0 -6 -2 -6 -6v-51c0 -6 -4 -10 -10 -10zM298 -11h-47c-6 0 -8 5 -5 10l394 682c4 7 8 10 15 10h47c6 0 9 -5 6 -10l-395 -682c-4 -7 -7 -10 -15 -10zM228 267c-69 0 -119 30 -133 87c-2 6 0 11 6 12l45 12c6 1 9 -1 12 -7c11 -23 33 -43 68 -43
c39 0 65 26 65 62c0 37 -26 62 -69 62h-19c-6 0 -10 4 -10 10v41c0 6 4 10 10 10h15c38 0 63 22 63 57s-22 56 -59 56c-34 0 -50 -16 -60 -37c-2 -6 -6 -8 -12 -7l-42 10c-6 1 -8 6 -7 12c10 45 52 83 123 83c78 0 125 -46 125 -112c0 -35 -17 -66 -46 -86v-1
c24 -10 55 -45 55 -97c0 -75 -51 -124 -130 -124z" />
    <glyph glyph-name="threeeighths" unicode="&#x215c;" horiz-adv-x="954" 
d="M723 -7c-80 0 -137 49 -137 123c0 45 23 79 55 98v1c-25 16 -45 44 -45 81c0 63 47 117 127 117s128 -54 128 -117c0 -37 -21 -65 -45 -81v-1c32 -19 55 -53 55 -98c0 -74 -58 -123 -138 -123zM723 241c35 0 60 24 60 55c0 32 -25 56 -60 56c-34 0 -59 -24 -59 -56
c0 -31 25 -55 59 -55zM723 54c40 0 70 27 70 64c0 38 -30 65 -70 65s-69 -27 -69 -65c0 -37 29 -64 69 -64zM298 -11h-47c-6 0 -8 5 -5 10l394 682c4 7 8 10 15 10h47c6 0 9 -5 6 -10l-395 -682c-4 -7 -7 -10 -15 -10zM228 267c-69 0 -119 30 -133 87c-2 6 0 11 6 12l45 12
c6 1 9 -1 12 -7c11 -23 33 -43 68 -43c39 0 65 26 65 62c0 37 -26 62 -69 62h-19c-6 0 -10 4 -10 10v41c0 6 4 10 10 10h15c38 0 63 22 63 57s-22 56 -59 56c-34 0 -50 -16 -60 -37c-2 -6 -6 -8 -12 -7l-42 10c-6 1 -8 6 -7 12c10 45 52 83 123 83c78 0 125 -46 125 -112
c0 -35 -17 -66 -46 -86v-1c24 -10 55 -45 55 -97c0 -75 -51 -124 -130 -124z" />
    <glyph glyph-name="fiveeighths" unicode="&#x215d;" horiz-adv-x="946" 
d="M715 -7c-80 0 -137 49 -137 123c0 45 23 79 55 98v1c-25 16 -45 44 -45 81c0 63 47 117 127 117s128 -54 128 -117c0 -37 -21 -65 -45 -81v-1c32 -19 55 -53 55 -98c0 -74 -58 -123 -138 -123zM715 241c35 0 60 24 60 55c0 32 -25 56 -60 56c-34 0 -59 -24 -59 -56
c0 -31 25 -55 59 -55zM715 54c40 0 70 27 70 64c0 38 -30 65 -70 65s-69 -27 -69 -65c0 -37 29 -64 69 -64zM290 -11h-47c-6 0 -8 5 -5 10l394 682c4 7 8 10 15 10h47c6 0 9 -5 6 -10l-395 -682c-4 -7 -7 -10 -15 -10zM218 267c-67 0 -113 32 -124 80c-1 5 -1 11 5 13l46 15
c5 2 9 0 11 -5c11 -25 29 -41 62 -41c30 0 49 13 57 36c3 10 4 20 4 39s-1 30 -4 40c-8 22 -26 35 -55 35c-27 0 -42 -11 -50 -24c-3 -5 -6 -8 -12 -8h-49c-6 0 -10 4 -10 10v213c0 6 4 10 10 10h221c6 0 10 -4 10 -10v-41c0 -6 -4 -10 -10 -10h-159c-4 0 -6 -2 -6 -6v-94h1
c12 11 34 21 65 21c58 0 93 -22 108 -68c6 -17 8 -36 8 -68c0 -29 -3 -46 -8 -62c-16 -48 -58 -75 -121 -75z" />
    <glyph glyph-name="seveneighths" unicode="&#x215e;" horiz-adv-x="877" 
d="M646 -7c-80 0 -137 49 -137 123c0 45 23 79 55 98v1c-25 16 -45 44 -45 81c0 63 47 117 127 117s128 -54 128 -117c0 -37 -21 -65 -45 -81v-1c32 -19 55 -53 55 -98c0 -74 -58 -123 -138 -123zM646 241c35 0 60 24 60 55c0 32 -25 56 -60 56c-34 0 -59 -24 -59 -56
c0 -31 25 -55 59 -55zM646 54c40 0 70 27 70 64c0 38 -30 65 -70 65s-69 -27 -69 -65c0 -37 29 -64 69 -64zM192 274h-49c-6 0 -9 4 -6 11l141 332v2h-113c-4 0 -6 -2 -6 -6v-43c0 -6 -4 -10 -10 -10h-46c-6 0 -10 4 -10 10v100c0 6 4 10 10 10h235c6 0 10 -4 10 -10v-47
c0 -5 -1 -8 -2 -11l-140 -329c-3 -7 -6 -9 -14 -9zM221 -11h-47c-6 0 -8 5 -5 10l394 682c4 7 8 10 15 10h47c6 0 9 -5 6 -10l-395 -682c-4 -7 -7 -10 -15 -10z" />
    <glyph glyph-name="perthousand" unicode="&#x2030;" horiz-adv-x="1083" 
d="M211 -11h-47c-6 0 -9 5 -6 10l394 682c4 7 8 10 16 10h47c6 0 8 -5 5 -10l-394 -682c-4 -7 -8 -10 -15 -10zM199 330c-57 0 -100 30 -116 77c-6 19 -8 30 -8 102s2 83 8 102c16 47 59 77 116 77s100 -30 115 -77c6 -19 8 -30 8 -102s-2 -83 -8 -102
c-15 -47 -58 -77 -115 -77zM199 388c26 0 46 12 53 35c4 10 6 20 6 86s-2 76 -6 86c-7 23 -27 35 -53 35s-46 -12 -54 -35c-3 -10 -5 -20 -5 -86s2 -76 5 -86c8 -23 28 -35 54 -35zM885 -9c-57 0 -100 30 -116 77c-5 19 -8 31 -8 102c0 72 3 84 8 102c16 47 59 77 116 77
s100 -30 115 -77c6 -18 8 -30 8 -102c0 -71 -2 -83 -8 -102c-15 -47 -58 -77 -115 -77zM579 -9c-57 0 -100 30 -115 77c-6 19 -8 31 -8 102c0 72 2 84 8 102c15 47 58 77 115 77c58 0 101 -30 116 -77c6 -18 8 -30 8 -102c0 -71 -2 -83 -8 -102c-15 -47 -58 -77 -116 -77z
M885 49c26 0 46 12 53 35c4 11 6 20 6 86c0 67 -2 76 -6 86c-7 23 -27 35 -53 35s-46 -12 -54 -35c-3 -10 -5 -19 -5 -86c0 -66 2 -75 5 -86c8 -23 28 -35 54 -35zM579 49c27 0 46 12 54 35c4 11 5 20 5 86c0 67 -1 76 -5 86c-8 23 -27 35 -54 35c-26 0 -45 -12 -53 -35
c-4 -10 -6 -19 -6 -86c0 -66 2 -75 6 -86c8 -23 27 -35 53 -35z" />
    <glyph glyph-name="minus" unicode="&#x2212;" 
d="M471 239h-400c-6 0 -10 4 -10 10v54c0 6 4 10 10 10h400c6 0 10 -4 10 -10v-54c0 -6 -4 -10 -10 -10z" />
    <glyph glyph-name="plusminus" unicode="&#xb1;" 
d="M299 134h-56c-6 0 -10 4 -10 10v158c0 4 -2 6 -6 6h-156c-6 0 -10 4 -10 10v54c0 6 4 10 10 10h156c4 0 6 2 6 6v158c0 6 4 10 10 10h56c6 0 10 -4 10 -10v-158c0 -4 2 -6 6 -6h156c6 0 10 -4 10 -10v-54c0 -6 -4 -10 -10 -10h-156c-4 0 -6 -2 -6 -6v-158
c0 -6 -4 -10 -10 -10zM471 0h-400c-6 0 -10 4 -10 10v54c0 6 4 10 10 10h400c6 0 10 -4 10 -10v-54c0 -6 -4 -10 -10 -10z" />
    <glyph glyph-name="multiply" unicode="&#xd7;" 
d="M449 136l-37 -39c-4 -4 -10 -4 -14 0l-123 121c-3 3 -5 3 -8 0l-122 -121c-4 -4 -10 -4 -14 0l-38 39c-4 4 -4 10 0 14l122 122c3 3 3 5 0 8l-122 122c-4 4 -4 10 0 14l38 39c4 4 10 4 14 0l122 -121c3 -3 6 -3 9 0l122 121c4 4 10 4 14 0l37 -39c4 -4 4 -10 0 -14
l-122 -121c-3 -3 -3 -6 0 -9l122 -122c4 -4 4 -10 0 -14z" />
    <glyph glyph-name="divide" unicode="&#xf7;" 
d="M215 438c0 31 25 56 56 56s56 -25 56 -56s-25 -56 -56 -56s-56 25 -56 56zM471 239h-400c-6 0 -10 4 -10 10v54c0 6 4 10 10 10h400c6 0 10 -4 10 -10v-54c0 -6 -4 -10 -10 -10zM215 114c0 31 25 56 56 56s56 -25 56 -56s-25 -56 -56 -56s-56 25 -56 56z" />
    <glyph glyph-name="notequal" unicode="&#x2260;" 
d="M471 139h-237l-52 -101c-4 -7 -8 -10 -15 -10h-47c-6 0 -8 5 -5 11l52 100h-96c-6 0 -10 4 -10 10v54c0 6 4 10 10 10h134l65 126h-199c-6 0 -10 4 -10 10v54c0 6 4 10 10 10h238l52 101c3 7 8 10 15 10h47c6 0 8 -5 5 -11l-52 -100h95c6 0 10 -4 10 -10v-54
c0 -6 -4 -10 -10 -10h-133l-65 -126h198c6 0 10 -4 10 -10v-54c0 -6 -4 -10 -10 -10z" />
    <glyph glyph-name="approxequal" unicode="&#x2248;" 
d="M286 404c23 -15 48 -29 71 -29c34 0 54 19 75 54c3 5 8 6 14 2l38 -22c6 -4 7 -7 4 -14c-26 -56 -76 -90 -132 -90c-41 0 -73 19 -100 37c-23 15 -48 29 -71 29c-34 0 -54 -19 -75 -54c-3 -5 -8 -6 -14 -2l-38 22c-6 4 -7 7 -4 14c26 56 76 90 132 90
c41 0 73 -19 100 -37zM286 210c23 -15 48 -29 71 -29c34 0 54 19 75 54c3 5 8 6 14 2l38 -22c6 -4 7 -7 4 -14c-26 -56 -76 -90 -132 -90c-41 0 -73 19 -100 37c-23 15 -48 29 -71 29c-34 0 -54 -19 -75 -54c-3 -5 -8 -6 -14 -2l-38 22c-6 4 -7 7 -4 14c26 56 76 90 132 90
c41 0 73 -19 100 -37z" />
    <glyph glyph-name="lessequal" unicode="&#x2264;" 
d="M471 143l-400 164c-6 2 -10 6 -10 13v47c0 7 3 11 10 14l400 164c6 2 10 0 10 -6v-62c0 -7 -2 -10 -10 -13l-301 -119v-2l301 -119c8 -3 10 -6 10 -13v-62c0 -6 -4 -8 -10 -6zM471 0h-400c-6 0 -10 4 -10 10v54c0 6 4 10 10 10h400c6 0 10 -4 10 -10v-54
c0 -6 -4 -10 -10 -10z" />
    <glyph glyph-name="greaterequal" unicode="&#x2265;" 
d="M471 307l-400 -164c-6 -2 -10 0 -10 6v62c0 7 2 10 10 13l301 119v2l-301 119c-8 3 -10 6 -10 13v62c0 6 4 8 10 6l400 -164c7 -3 10 -7 10 -14v-47c0 -7 -4 -11 -10 -13zM471 0h-400c-6 0 -10 4 -10 10v54c0 6 4 10 10 10h400c6 0 10 -4 10 -10v-54c0 -6 -4 -10 -10 -10
z" />
    <glyph glyph-name="logicalnot" unicode="&#xac;" 
d="M471 103h-56c-6 0 -10 4 -10 10v120c0 4 -2 6 -6 6h-328c-6 0 -10 4 -10 10v54c0 6 4 10 10 10h400c6 0 10 -4 10 -10v-190c0 -6 -4 -10 -10 -10z" />
    <glyph glyph-name="Delta" unicode="&#x394;" horiz-adv-x="607" 
d="M575 0h-543c-7 0 -10 4 -8 10l236 660c2 6 5 10 12 10h65c7 0 10 -4 12 -10l234 -660c2 -6 -1 -10 -8 -10zM465 75c4 0 6 2 5 6l-165 466h-2l-166 -466c-1 -4 1 -6 5 -6h323z" />
    <glyph glyph-name="Delta" unicode="&#x2206;" horiz-adv-x="607" 
d="M575 0h-543c-7 0 -10 4 -8 10l236 660c2 6 5 10 12 10h65c7 0 10 -4 12 -10l234 -660c2 -6 -1 -10 -8 -10zM465 75c4 0 6 2 5 6l-165 466h-2l-166 -466c-1 -4 1 -6 5 -6h323z" />
    <glyph glyph-name="uni0394" horiz-adv-x="607" 
d="M575 0h-543c-7 0 -10 4 -8 10l236 660c2 6 5 10 12 10h65c7 0 10 -4 12 -10l234 -660c2 -6 -1 -10 -8 -10zM465 75c4 0 6 2 5 6l-165 466h-2l-166 -466c-1 -4 1 -6 5 -6h323z" />
    <glyph glyph-name="Omega" unicode="&#x3a9;" horiz-adv-x="625" 
d="M552 0h-189c-6 0 -10 4 -10 10v62c0 8 3 11 10 13c83 28 112 95 112 255c0 104 -7 140 -16 167c-22 65 -72 101 -147 101c-74 0 -124 -36 -146 -101c-9 -27 -16 -63 -16 -167c0 -160 29 -227 112 -255c7 -2 10 -5 10 -13v-62c0 -6 -4 -10 -10 -10h-189c-6 0 -10 4 -10 10
v62c0 6 4 10 10 10h77v2c-63 40 -90 100 -90 256c0 112 6 150 19 190c35 107 120 161 233 161c114 0 199 -54 234 -161c12 -40 19 -78 19 -190c0 -156 -27 -216 -90 -256v-2h77c6 0 10 -4 10 -10v-62c0 -6 -4 -10 -10 -10z" />
    <glyph glyph-name="Omega" unicode="&#x2126;" horiz-adv-x="625" 
d="M552 0h-189c-6 0 -10 4 -10 10v62c0 8 3 11 10 13c83 28 112 95 112 255c0 104 -7 140 -16 167c-22 65 -72 101 -147 101c-74 0 -124 -36 -146 -101c-9 -27 -16 -63 -16 -167c0 -160 29 -227 112 -255c7 -2 10 -5 10 -13v-62c0 -6 -4 -10 -10 -10h-189c-6 0 -10 4 -10 10
v62c0 6 4 10 10 10h77v2c-63 40 -90 100 -90 256c0 112 6 150 19 190c35 107 120 161 233 161c114 0 199 -54 234 -161c12 -40 19 -78 19 -190c0 -156 -27 -216 -90 -256v-2h77c6 0 10 -4 10 -10v-62c0 -6 -4 -10 -10 -10z" />
    <glyph glyph-name="uni03A9" horiz-adv-x="625" 
d="M552 0h-189c-6 0 -10 4 -10 10v62c0 8 3 11 10 13c83 28 112 95 112 255c0 104 -7 140 -16 167c-22 65 -72 101 -147 101c-74 0 -124 -36 -146 -101c-9 -27 -16 -63 -16 -167c0 -160 29 -227 112 -255c7 -2 10 -5 10 -13v-62c0 -6 -4 -10 -10 -10h-189c-6 0 -10 4 -10 10
v62c0 6 4 10 10 10h77v2c-63 40 -90 100 -90 256c0 112 6 150 19 190c35 107 120 161 233 161c114 0 199 -54 234 -161c12 -40 19 -78 19 -190c0 -156 -27 -216 -90 -256v-2h77c6 0 10 -4 10 -10v-62c0 -6 -4 -10 -10 -10z" />
    <glyph glyph-name="mu" unicode="&#xb5;" horiz-adv-x="546" 
d="M454 0h-64c-6 0 -10 4 -10 10v45h-1c-19 -38 -62 -66 -120 -66c-44 0 -73 14 -91 37h-2v-196c0 -6 -4 -10 -10 -10h-64c-6 0 -10 4 -10 10v639c0 6 4 10 10 10h64c6 0 10 -4 10 -10v-284c0 -74 36 -118 106 -118c65 0 108 45 108 118v284c0 6 4 10 10 10h64
c6 0 10 -4 10 -10v-459c0 -6 -4 -10 -10 -10z" />
    <glyph glyph-name="mu" unicode="&#x3bc;" horiz-adv-x="546" 
d="M454 0h-64c-6 0 -10 4 -10 10v45h-1c-19 -38 -62 -66 -120 -66c-44 0 -73 14 -91 37h-2v-196c0 -6 -4 -10 -10 -10h-64c-6 0 -10 4 -10 10v639c0 6 4 10 10 10h64c6 0 10 -4 10 -10v-284c0 -74 36 -118 106 -118c65 0 108 45 108 118v284c0 6 4 10 10 10h64
c6 0 10 -4 10 -10v-459c0 -6 -4 -10 -10 -10z" />
    <glyph glyph-name="uni03BC" horiz-adv-x="546" 
d="M454 0h-64c-6 0 -10 4 -10 10v45h-1c-19 -38 -62 -66 -120 -66c-44 0 -73 14 -91 37h-2v-196c0 -6 -4 -10 -10 -10h-64c-6 0 -10 4 -10 10v639c0 6 4 10 10 10h64c6 0 10 -4 10 -10v-284c0 -74 36 -118 106 -118c65 0 108 45 108 118v284c0 6 4 10 10 10h64
c6 0 10 -4 10 -10v-459c0 -6 -4 -10 -10 -10z" />
    <glyph glyph-name="pi" unicode="&#x3c0;" horiz-adv-x="578" 
d="M506 -6h-17c-74 0 -102 37 -102 113v288c0 4 -2 6 -6 6h-185c-4 0 -6 -2 -6 -6v-385c0 -6 -4 -10 -10 -10h-64c-6 0 -10 4 -10 10v385c0 4 -2 6 -6 6h-43c-6 0 -10 4 -10 10v58c0 6 4 10 10 10h462c6 0 10 -4 10 -10v-58c0 -6 -4 -10 -10 -10h-42c-4 0 -6 -2 -6 -6v-286
c0 -28 9 -37 30 -37h5c6 0 10 -4 10 -10v-58c0 -6 -4 -10 -10 -10z" />
    <glyph glyph-name="degree" unicode="&#xb0;" horiz-adv-x="456" 
d="M228 397c-84 0 -146 63 -146 146s62 146 146 146s146 -63 146 -146s-62 -146 -146 -146zM228 449c53 0 91 40 91 94s-38 94 -91 94s-91 -40 -91 -94s38 -94 91 -94z" />
    <glyph glyph-name="afii61289" unicode="&#x2113;" horiz-adv-x="410" 
d="M83 177c-5 -3 -10 -3 -14 2l-28 41c-3 5 -2 10 2 14l73 58v208c0 124 44 191 130 191c69 0 116 -51 116 -138c0 -97 -49 -188 -161 -292v-134c0 -42 17 -60 46 -60c22 0 41 11 59 28c5 4 11 3 14 -2l27 -39c3 -5 3 -10 -2 -14c-29 -31 -71 -51 -115 -51
c-78 0 -114 49 -114 138v76zM201 509v-151c61 65 88 126 88 195c0 42 -16 68 -41 68c-28 0 -47 -23 -47 -112z" />
    <glyph glyph-name="estimated" unicode="&#x212e;" horiz-adv-x="620" 
d="M309 -11c-142 0 -233 113 -233 252c0 140 91 249 233 249c141 0 234 -102 235 -249h-366v-165c35 -34 79 -52 131 -52c75 0 130 32 174 108l32 -20c-55 -85 -111 -123 -206 -123zM442 273v132c-39 35 -82 54 -133 54c-52 0 -96 -19 -131 -54v-132h264z" />
    <glyph glyph-name="eng" unicode="&#x14b;" horiz-adv-x="544" 
d="M324 -180h-20c-6 0 -10 4 -10 10v58c0 6 4 10 10 10h16c47 0 63 13 63 64v328c0 77 -35 122 -107 122c-65 0 -110 -46 -110 -117v-285c0 -6 -4 -10 -10 -10h-64c-6 0 -10 4 -10 10v459c0 6 4 10 10 10h64c6 0 10 -4 10 -10v-44h1c23 37 69 65 134 65
c104 0 167 -71 167 -180v-346c0 -103 -47 -144 -144 -144z" />
    <glyph glyph-name="Eng" unicode="&#x14a;" horiz-adv-x="654" 
d="M405 -180h-21c-6 0 -10 4 -10 10v62c0 6 4 10 10 10h18c54 0 84 23 84 80v18l-315 517h-3v-507c0 -6 -4 -10 -10 -10h-64c-6 0 -10 4 -10 10v660c0 6 4 10 10 10h64c9 0 13 -3 17 -10l307 -508h4v508c0 6 4 10 10 10h64c6 0 10 -4 10 -10v-681c0 -119 -56 -169 -165 -169
z" />
    <glyph glyph-name="infinity" unicode="&#x221e;" horiz-adv-x="766" 
d="M567 87c-65 0 -120 34 -184 108c-65 -73 -121 -108 -185 -108c-89 0 -156 65 -156 160c0 94 66 160 157 160c62 0 116 -36 183 -112c70 80 121 112 184 112c90 0 158 -64 158 -160c0 -94 -67 -160 -157 -160zM564 149c60 0 96 47 96 99c0 53 -35 97 -96 97
c-42 0 -79 -27 -139 -99c63 -73 96 -97 139 -97zM202 149c41 0 80 29 139 97c-60 71 -96 99 -139 99c-61 0 -96 -43 -96 -97c0 -56 38 -99 96 -99z" />
    <glyph glyph-name="partialdiff" unicode="&#x2202;" horiz-adv-x="541" 
d="M250 -11c-119 0 -197 88 -197 210c0 124 83 218 202 218c61 0 115 -22 153 -69h1c2 149 -49 267 -159 267c-41 0 -77 -16 -112 -42c-5 -3 -10 -2 -13 3l-29 45c-3 5 -2 10 3 14c38 31 92 56 153 56c155 0 236 -133 236 -335c0 -213 -74 -367 -238 -367zM257 68
c89 0 138 77 148 211c-35 41 -82 66 -136 66c-83 0 -135 -53 -135 -144c0 -79 49 -133 123 -133z" />
    <glyph glyph-name="integral" unicode="&#x222b;" horiz-adv-x="414" 
d="M107 -180c-11 0 -29 1 -41 2c-6 1 -10 4 -10 10v57c0 7 4 11 10 10c10 -1 21 -2 29 -2c47 0 70 27 70 100v548c0 140 45 194 143 195c10 0 28 0 40 -2c6 -1 10 -4 10 -10v-57c0 -6 -4 -11 -10 -10c-10 2 -21 2 -29 2c-47 0 -70 -27 -70 -100v-548
c0 -140 -45 -194 -142 -195z" />
    <glyph glyph-name="radical" unicode="&#x221a;" horiz-adv-x="629" 
d="M349 -180h-53c-6 0 -10 3 -13 10l-138 282c-2 4 -5 5 -9 3l-66 -31c-6 -3 -11 -1 -13 4l-20 43c-3 6 -1 11 4 13l128 63c6 3 11 2 14 -4l129 -269h3l219 796c2 7 6 10 12 10h57c7 0 10 -4 8 -10l-250 -900c-2 -6 -6 -10 -12 -10z" />
    <glyph glyph-name="summation" unicode="&#x2211;" horiz-adv-x="534" 
d="M481 -180h-420c-6 0 -10 4 -10 10v59c0 4 1 7 2 9l186 422l-181 336c-2 4 -3 7 -3 11v63c0 6 4 10 10 10h406c6 0 10 -4 10 -10v-63c0 -6 -4 -10 -10 -10h-315l174 -324c2 -5 2 -9 0 -14l-183 -416h334c6 0 10 -4 10 -10v-63c0 -6 -4 -10 -10 -10z" />
    <glyph glyph-name="product" unicode="&#x220f;" horiz-adv-x="652" 
d="M558 -180h-69c-6 0 -10 4 -10 10v821c0 4 -2 6 -6 6h-294c-4 0 -6 -2 -6 -6v-821c0 -6 -4 -10 -10 -10h-69c-6 0 -10 4 -10 10v900c0 6 4 10 10 10h464c6 0 10 -4 10 -10v-900c0 -6 -4 -10 -10 -10z" />
    <glyph glyph-name="lozenge" unicode="&#x25ca;" horiz-adv-x="559" 
d="M308 -52h-57c-7 0 -11 3 -14 10l-176 364c-2 5 -2 9 0 14l176 364c3 7 7 10 14 10h57c7 0 11 -3 14 -10l176 -364c2 -5 2 -9 0 -14l-176 -364c-3 -7 -7 -10 -14 -10zM282 35l137 294l-139 294h-2l-138 -294l140 -294h2z" />
    <glyph glyph-name="uniF8FF" unicode="&#xf8ff;" horiz-adv-x="477" 
d="M467 0h-457c-6 0 -10 4 -10 10v660c0 6 4 10 10 10h457c6 0 10 -4 10 -10v-660c0 -6 -4 -10 -10 -10zM422 47c4 0 6 2 6 6v574c0 4 -2 6 -6 6h-367c-4 0 -6 -2 -6 -6v-574c0 -4 2 -6 6 -6h367zM247 231h-39c-6 0 -10 4 -10 10v24c0 28 6 42 20 60l44 60
c22 27 28 43 28 66c0 34 -24 58 -59 58s-57 -19 -65 -54c-1 -6 -5 -10 -12 -9l-37 6c-6 1 -9 5 -8 11c12 60 55 99 124 99s116 -48 116 -111c0 -34 -10 -58 -32 -84l-43 -60c-13 -16 -17 -26 -17 -48v-18c0 -6 -4 -10 -10 -10zM250 114h-45c-6 0 -10 4 -10 10v49
c0 6 4 10 10 10h45c6 0 10 -4 10 -10v-49c0 -6 -4 -10 -10 -10z" />
    <glyph glyph-name="exclam.sc" horiz-adv-x="274" 
d="M158 184h-41c-6 0 -10 4 -10 10l-17 315c0 6 4 10 10 10h75c6 0 10 -4 10 -10l-17 -315c0 -6 -4 -10 -10 -10zM175 0h-76c-6 0 -10 4 -10 10v86c0 6 4 10 10 10h76c6 0 10 -4 10 -10v-86c0 -6 -4 -10 -10 -10z" />
    <glyph glyph-name="dollar.sc" horiz-adv-x="453" 
d="M241 -55h-24c-6 0 -10 4 -10 10v36c-68 2 -119 20 -161 49c-5 3 -6 10 -2 15l35 47c4 5 8 5 14 1c28 -19 67 -35 114 -39v164l-6 1c-96 12 -149 66 -149 146c0 89 61 146 155 152v37c0 6 4 10 10 10h24c6 0 10 -4 10 -10v-37c51 -4 94 -20 125 -39c5 -4 6 -9 2 -14
l-30 -46c-4 -5 -9 -6 -14 -3c-25 14 -52 24 -83 28v-154l8 -1c101 -14 152 -66 152 -147c0 -84 -54 -148 -160 -158v-38c0 -6 -4 -10 -10 -10zM130 381c0 -39 19 -65 77 -77v150c-48 -4 -77 -32 -77 -73zM333 146c0 36 -19 63 -82 75v-156c52 7 82 36 82 81z" />
    <glyph glyph-name="percent.sc" horiz-adv-x="671" 
d="M187 -11h-47c-6 0 -7 5 -4 10l334 521c4 7 8 10 15 10h47c6 0 8 -5 5 -10l-334 -521c-4 -7 -8 -10 -16 -10zM169 254c-50 0 -87 26 -100 64c-6 16 -9 33 -9 72s3 55 9 72c13 37 50 63 100 63s86 -26 100 -63c5 -17 8 -33 8 -72s-3 -56 -8 -72c-14 -38 -50 -64 -100 -64z
M169 309c22 0 36 11 42 29c3 8 4 18 4 52s-1 44 -4 52c-6 18 -20 28 -42 28s-36 -10 -42 -28c-3 -8 -5 -18 -5 -52s2 -44 5 -52c6 -18 20 -29 42 -29zM504 -6c-50 0 -87 26 -101 64c-5 16 -8 32 -8 72c0 39 3 55 8 72c14 37 51 63 101 63s86 -26 100 -63c5 -17 8 -33 8 -72
c0 -40 -3 -56 -8 -72c-14 -38 -50 -64 -100 -64zM504 49c22 0 36 10 42 29c2 8 4 18 4 52s-2 44 -4 52c-6 18 -20 28 -42 28s-36 -10 -42 -28c-3 -8 -5 -18 -5 -52s2 -44 5 -52c6 -19 20 -29 42 -29z" />
    <glyph glyph-name="ampersand.sc" horiz-adv-x="558" 
d="M495 -6h-22c-36 0 -54 12 -82 45l-20 22c-53 -53 -100 -72 -155 -72c-92 0 -143 57 -143 135c0 55 24 101 103 163c-52 62 -65 88 -65 126c0 67 57 117 133 117c82 0 130 -56 130 -118c0 -44 -25 -79 -95 -133l94 -108l53 63c4 5 9 6 14 2l37 -30c5 -4 6 -9 2 -14
l-59 -74l29 -33c10 -12 20 -17 34 -17h12c6 0 10 -4 10 -10v-54c0 -6 -4 -10 -10 -10zM189 413c0 -20 8 -37 45 -81c53 40 64 58 64 80c0 26 -20 49 -54 49c-35 0 -55 -20 -55 -48zM221 62c35 0 63 12 103 53l-102 119c-59 -45 -73 -72 -73 -103c0 -39 26 -69 72 -69z" />
    <glyph glyph-name="zero.sc" horiz-adv-x="453" 
d="M226 -11c-82 0 -140 45 -161 109c-9 28 -12 45 -12 162c0 116 3 134 12 161c21 64 79 109 161 109c83 0 141 -45 162 -109c9 -27 12 -45 12 -161c0 -117 -3 -134 -12 -162c-21 -64 -79 -109 -162 -109zM226 64c42 0 72 23 82 54c6 17 9 36 9 142s-3 124 -9 141
c-10 31 -40 54 -82 54s-71 -23 -81 -54c-6 -17 -9 -35 -9 -141s3 -125 9 -142c10 -31 39 -54 81 -54z" />
    <glyph glyph-name="one.sc" horiz-adv-x="453" 
d="M277 0h-63c-6 0 -10 4 -10 10v414h-2l-92 -57c-6 -3 -12 -1 -12 6v65c0 7 2 12 9 16l94 60c6 4 10 5 17 5h59c6 0 10 -4 10 -10v-499c0 -6 -4 -10 -10 -10z" />
    <glyph glyph-name="two.sc" horiz-adv-x="453" 
d="M380 0h-313c-6 0 -10 4 -10 10v50c0 6 1 9 5 13l203 216c29 32 41 55 41 88c0 44 -31 78 -84 78c-49 0 -79 -30 -86 -70c-1 -5 -5 -9 -12 -7l-59 13c-6 1 -9 5 -8 11c9 63 64 128 167 128c105 0 166 -69 166 -150c0 -55 -20 -91 -60 -132l-164 -171v-2h214
c6 0 10 -4 10 -10v-55c0 -6 -4 -10 -10 -10z" />
    <glyph glyph-name="three.sc" horiz-adv-x="453" 
d="M225 -11c-92 0 -159 45 -172 114c-1 6 2 10 8 12l58 15c6 1 10 -1 12 -7c12 -31 42 -59 94 -59c57 0 92 34 92 83c0 50 -37 84 -98 84h-22c-6 0 -10 4 -10 10v54c0 6 4 10 10 10h19c54 0 89 30 89 75c0 42 -30 75 -84 75c-45 0 -73 -22 -83 -58c-2 -5 -6 -8 -13 -7
l-57 15c-6 2 -9 6 -8 12c13 65 71 113 162 113c105 0 166 -63 166 -146c0 -42 -22 -82 -65 -108v-1c38 -15 77 -59 77 -126c0 -96 -72 -160 -175 -160z" />
    <glyph glyph-name="four.sc" horiz-adv-x="453" 
d="M350 0h-62c-6 0 -10 4 -10 10v66c0 4 -2 6 -6 6h-224c-6 0 -10 4 -10 10v46c0 8 1 13 6 21l182 352c3 6 7 8 14 8h65c7 0 9 -4 7 -9l-181 -352v-1h141c4 0 6 2 6 6v125c0 6 4 10 10 10h62c6 0 10 -4 10 -10v-125c0 -4 2 -6 6 -6h45c6 0 10 -4 10 -10v-55
c0 -6 -4 -10 -10 -10h-45c-4 0 -6 -2 -6 -6v-66c0 -6 -4 -10 -10 -10z" />
    <glyph glyph-name="five.sc" horiz-adv-x="453" 
d="M232 -11c-89 0 -145 44 -165 106c-1 6 1 11 7 13l58 15c8 2 12 -1 14 -7c12 -29 37 -52 86 -52c41 0 70 19 80 49c5 14 7 28 7 54s-2 40 -6 53c-11 31 -36 50 -79 50c-42 0 -66 -18 -78 -39c-4 -6 -7 -9 -13 -9h-58c-6 0 -10 4 -10 10v277c0 6 4 10 10 10h296
c6 0 10 -4 10 -10v-54c0 -6 -4 -10 -10 -10h-224c-4 0 -6 -2 -6 -6v-124h3c15 14 45 30 90 30c83 0 128 -33 148 -94c8 -24 11 -45 11 -84c0 -33 -3 -55 -11 -79c-21 -63 -80 -99 -160 -99z" />
    <glyph glyph-name="six.sc" horiz-adv-x="453" 
d="M226 -11c-100 0 -179 64 -179 166c0 42 15 86 38 123l145 232c4 6 8 9 15 9h66c8 0 9 -5 6 -10l-126 -200l2 -1c10 4 28 8 51 8c92 0 162 -60 162 -161c0 -104 -80 -166 -180 -166zM226 64c59 0 96 40 96 89s-37 88 -96 88c-58 0 -95 -39 -95 -88s37 -89 95 -89z" />
    <glyph glyph-name="seven.sc" horiz-adv-x="453" 
d="M190 0h-64c-6 0 -9 4 -6 11l192 431v3h-160c-4 0 -6 -2 -6 -6v-58c0 -6 -4 -10 -10 -10h-59c-6 0 -10 4 -10 10v128c0 6 4 10 10 10h313c6 0 10 -4 10 -10v-58c0 -4 -1 -7 -2 -11l-194 -431c-3 -7 -6 -9 -14 -9z" />
    <glyph glyph-name="eight.sc" horiz-adv-x="453" 
d="M226 -11c-107 0 -179 66 -179 158c0 59 31 103 73 125v1c-34 18 -61 57 -61 108c0 77 59 149 167 149c109 0 168 -72 168 -149c0 -51 -27 -90 -61 -108v-1c42 -22 73 -66 73 -125c0 -92 -72 -158 -180 -158zM226 310c52 0 84 31 84 73c0 40 -32 72 -84 72
c-51 0 -83 -32 -83 -72c0 -42 32 -73 83 -73zM226 64c60 0 96 38 96 86s-36 85 -96 85c-59 0 -95 -37 -95 -85s36 -86 95 -86z" />
    <glyph glyph-name="nine.sc" horiz-adv-x="453" 
d="M208 0h-66c-8 0 -9 5 -6 10l125 200l-1 2c-10 -5 -29 -9 -51 -9c-92 0 -162 60 -162 162c0 103 80 165 179 165c101 0 180 -63 180 -165c0 -42 -15 -87 -38 -123l-145 -232c-4 -7 -8 -10 -15 -10zM226 278c59 0 96 39 96 89c0 49 -37 88 -96 88c-58 0 -95 -39 -95 -88
c0 -50 37 -89 95 -89z" />
    <glyph glyph-name="question.sc" horiz-adv-x="402" 
d="M228 162h-65c-6 0 -10 4 -10 10v25c0 31 7 47 28 68l49 49c31 31 40 49 40 77c0 35 -26 61 -70 61c-43 0 -68 -23 -76 -61c-1 -6 -6 -9 -12 -8l-62 10c-6 1 -9 5 -8 11c13 71 64 126 161 126c91 0 153 -57 153 -133c0 -49 -16 -79 -51 -115l-46 -47
c-16 -16 -21 -27 -21 -50v-13c0 -6 -4 -10 -10 -10zM232 0h-76c-6 0 -10 4 -10 10v86c0 6 4 10 10 10h76c6 0 10 -4 10 -10v-86c0 -6 -4 -10 -10 -10z" />
    <glyph glyph-name="a.sc" horiz-adv-x="528" 
d="M493 0h-64c-7 0 -10 2 -13 10l-39 102h-226l-39 -102c-3 -8 -6 -10 -13 -10h-64c-7 0 -10 4 -8 10l194 499c2 6 6 10 13 10h62c7 0 11 -4 13 -10l192 -499c2 -6 -1 -10 -8 -10zM264 405l-84 -218h169l-82 218h-3z" />
    <glyph glyph-name="b.sc" horiz-adv-x="533" 
d="M293 0h-200c-6 0 -10 4 -10 10v499c0 6 4 10 10 10h213c108 0 165 -56 165 -137c0 -58 -29 -94 -71 -111v-2c36 -12 81 -51 81 -120c0 -97 -65 -149 -188 -149zM301 301c55 0 86 28 86 71c0 44 -31 72 -86 72h-128c-4 0 -6 -2 -6 -6v-131c0 -4 2 -6 6 -6h128zM305 76
c60 0 92 28 92 75c0 46 -32 75 -92 75h-132c-4 0 -6 -2 -6 -6v-138c0 -4 2 -6 6 -6h132z" />
    <glyph glyph-name="c.sc" horiz-adv-x="489" 
d="M264 -11c-96 0 -167 49 -195 135c-10 32 -15 70 -15 136c0 65 5 104 15 135c28 87 99 135 195 135c76 0 144 -34 180 -109c3 -6 2 -11 -4 -14l-55 -27c-6 -3 -11 -1 -14 4c-23 44 -59 68 -107 68c-53 0 -95 -25 -112 -79c-8 -24 -12 -51 -12 -113c0 -63 4 -90 12 -114
c17 -53 59 -79 112 -79c48 1 84 24 107 68c3 5 8 8 14 5l55 -27c6 -3 7 -9 4 -14c-36 -76 -104 -110 -180 -110z" />
    <glyph glyph-name="d.sc" horiz-adv-x="548" 
d="M288 0h-195c-6 0 -10 4 -10 10v499c0 6 4 10 10 10h195c96 0 162 -40 187 -115c8 -27 14 -56 14 -144c0 -89 -6 -118 -14 -144c-25 -76 -91 -116 -187 -116zM267 78c66 0 108 17 126 70c7 19 10 41 10 112c0 70 -3 93 -10 111c-18 53 -60 71 -126 71h-94
c-4 0 -6 -2 -6 -6v-352c0 -4 2 -6 6 -6h94z" />
    <glyph glyph-name="e.sc" horiz-adv-x="503" 
d="M438 0h-345c-6 0 -10 4 -10 10v499c0 6 4 10 10 10h345c6 0 10 -4 10 -10v-57c0 -6 -4 -10 -10 -10h-265c-4 0 -6 -2 -6 -6v-128c0 -4 2 -6 6 -6h224c6 0 10 -4 10 -10v-58c0 -6 -4 -10 -10 -10h-224c-4 0 -6 -2 -6 -6v-134c0 -4 2 -6 6 -6h265c6 0 10 -4 10 -10v-58
c0 -6 -4 -10 -10 -10z" />
    <glyph glyph-name="f.sc" horiz-adv-x="494" 
d="M157 0h-64c-6 0 -10 4 -10 10v499c0 6 4 10 10 10h345c6 0 10 -4 10 -10v-57c0 -6 -4 -10 -10 -10h-265c-4 0 -6 -2 -6 -6v-134c0 -4 2 -6 6 -6h224c6 0 10 -4 10 -10v-58c0 -6 -4 -10 -10 -10h-224c-4 0 -6 -2 -6 -6v-202c0 -6 -4 -10 -10 -10z" />
    <glyph glyph-name="g.sc" horiz-adv-x="531" 
d="M265 -11c-96 0 -168 49 -196 136c-10 31 -15 69 -15 135c0 65 5 104 15 135c28 87 100 135 196 135c91 0 155 -42 190 -109c3 -5 1 -11 -5 -14l-54 -27c-6 -2 -11 0 -14 5c-25 43 -62 67 -117 67c-53 0 -96 -25 -113 -79c-8 -24 -12 -51 -12 -113c0 -63 4 -89 12 -114
c17 -53 61 -79 114 -79c57 0 100 25 117 79c7 18 9 35 9 56c0 4 -2 6 -6 6h-100c-5 0 -9 4 -9 9v55c0 6 4 9 9 9h182c5 0 9 -3 9 -9v-19c0 -59 -5 -98 -15 -129c-28 -87 -100 -135 -197 -135z" />
    <glyph glyph-name="h.sc" horiz-adv-x="579" 
d="M486 0h-64c-6 0 -10 4 -10 10v207c0 4 -2 6 -6 6h-233c-4 0 -6 -2 -6 -6v-207c0 -6 -4 -10 -10 -10h-64c-6 0 -10 4 -10 10v499c0 6 4 10 10 10h64c6 0 10 -4 10 -10v-202c0 -4 2 -6 6 -6h233c4 0 6 2 6 6v202c0 6 4 10 10 10h64c6 0 10 -4 10 -10v-499
c0 -6 -4 -10 -10 -10z" />
    <glyph glyph-name="i.sc" horiz-adv-x="251" 
d="M157 0h-64c-6 0 -10 4 -10 10v499c0 6 4 10 10 10h64c6 0 10 -4 10 -10v-499c0 -6 -4 -10 -10 -10z" />
    <glyph glyph-name="j.sc" horiz-adv-x="438" 
d="M178 -9c-65 0 -118 27 -147 63c-3 4 -3 9 2 13l49 37c5 3 10 3 15 -2c18 -18 46 -34 82 -34c62 0 95 35 95 106v335c0 6 4 10 10 10h64c6 0 10 -4 10 -10v-335c0 -118 -66 -183 -180 -183z" />
    <glyph glyph-name="k.sc" horiz-adv-x="549" 
d="M507 0h-76c-7 0 -11 2 -15 9l-154 245l-95 -105v-139c0 -6 -4 -10 -10 -10h-64c-6 0 -10 4 -10 10v499c0 6 4 10 10 10h64c6 0 10 -4 10 -10v-257l227 259c5 6 9 8 16 8h77c6 0 9 -6 5 -12l-174 -191l195 -305c4 -6 1 -11 -6 -11z" />
    <glyph glyph-name="l.sc" horiz-adv-x="471" 
d="M423 0h-330c-6 0 -10 4 -10 10v499c0 6 4 10 10 10h64c6 0 10 -4 10 -10v-425c0 -4 2 -6 6 -6h250c6 0 10 -4 10 -10v-58c0 -6 -4 -10 -10 -10z" />
    <glyph glyph-name="m.sc" horiz-adv-x="664" 
d="M571 0h-58c-6 0 -10 4 -10 10v328h-4l-130 -254c-4 -9 -9 -12 -18 -12h-38c-9 0 -14 3 -18 12l-130 254h-4v-328c0 -6 -4 -10 -10 -10h-58c-6 0 -10 4 -10 10v499c0 6 4 10 10 10h60c8 0 13 -3 16 -10l163 -327h4l160 327c3 7 8 10 16 10h59c6 0 10 -4 10 -10v-499
c0 -6 -4 -10 -10 -10z" />
    <glyph glyph-name="n.sc" horiz-adv-x="581" 
d="M488 0h-61c-7 0 -11 3 -16 10l-247 363h-3v-363c0 -6 -4 -10 -10 -10h-58c-6 0 -10 4 -10 10v499c0 6 4 10 10 10h60c8 0 13 -2 17 -10l246 -363h4v363c0 6 4 10 10 10h58c6 0 10 -4 10 -10v-499c0 -6 -4 -10 -10 -10z" />
    <glyph glyph-name="o.sc" horiz-adv-x="531" 
d="M265 -11c-96 0 -168 49 -196 136c-10 31 -15 69 -15 135c0 65 5 104 15 135c28 86 100 135 196 135c97 0 169 -49 197 -135c10 -31 15 -70 15 -135c0 -66 -5 -104 -15 -135c-28 -87 -100 -136 -197 -136zM265 67c54 0 97 26 115 79c8 25 11 51 11 114c0 62 -3 89 -11 113
c-18 53 -61 79 -115 79c-53 0 -97 -26 -114 -79c-8 -24 -11 -51 -11 -113c0 -63 3 -89 11 -114c17 -53 61 -79 114 -79z" />
    <glyph glyph-name="p.sc" horiz-adv-x="524" 
d="M157 0h-64c-6 0 -10 4 -10 10v499c0 6 4 10 10 10h208c117 0 185 -65 185 -159c0 -93 -68 -159 -185 -159h-128c-4 0 -6 -2 -6 -6v-185c0 -6 -4 -10 -10 -10zM299 278c66 0 102 31 102 82s-36 82 -102 82h-126c-4 0 -6 -2 -6 -6v-152c0 -4 2 -6 6 -6h126z" />
    <glyph glyph-name="q.sc" horiz-adv-x="531" 
d="M438 -32l-54 53c-33 -21 -73 -32 -119 -32c-96 0 -168 49 -196 136c-10 31 -15 69 -15 135c0 65 5 104 15 135c28 86 100 135 196 135c97 0 169 -49 197 -135c10 -31 15 -70 15 -135c0 -66 -5 -104 -15 -135c-7 -20 -16 -38 -26 -54l51 -49c4 -5 5 -10 0 -15l-35 -38
c-4 -5 -10 -5 -14 -1zM265 66c22 0 42 4 60 13l-47 46c-5 4 -5 9 -1 14l35 39c4 4 10 5 14 0l49 -48c3 5 5 10 7 16c8 25 11 51 11 114s-3 89 -11 113c-18 53 -62 80 -117 80c-54 0 -99 -27 -116 -80c-8 -24 -11 -50 -11 -113s3 -89 11 -114c17 -53 62 -80 116 -80z" />
    <glyph glyph-name="r.sc" horiz-adv-x="547" 
d="M486 0h-75c-7 0 -10 3 -14 10l-108 200h-116c-4 0 -6 -2 -6 -6v-194c0 -6 -4 -10 -10 -10h-64c-6 0 -10 4 -10 10v499c0 6 4 10 10 10h213c110 0 177 -62 177 -155c0 -70 -39 -122 -106 -144l116 -208c3 -6 0 -12 -7 -12zM303 288c62 0 95 29 95 76c0 49 -33 78 -95 78
h-130c-4 0 -6 -2 -6 -6v-142c0 -4 2 -6 6 -6h130z" />
    <glyph glyph-name="s.sc" horiz-adv-x="499" 
d="M244 -11c-82 0 -162 32 -203 68c-4 4 -5 9 -1 14l41 48c4 5 9 5 14 1c37 -28 93 -53 156 -53c74 0 117 32 117 78c0 39 -26 65 -111 76l-31 4c-111 14 -168 65 -168 150c0 94 72 155 188 155c68 0 134 -20 176 -50c5 -4 6 -9 3 -14l-32 -50c-4 -5 -9 -5 -14 -2
c-44 25 -88 38 -136 38c-64 0 -99 -30 -99 -73c0 -38 29 -64 112 -75l30 -4c112 -15 168 -63 168 -149c0 -93 -71 -162 -210 -162z" />
    <glyph glyph-name="t.sc" horiz-adv-x="460" 
d="M262 0h-64c-6 0 -10 4 -10 10v426c0 4 -2 6 -6 6h-150c-6 0 -10 4 -10 10v57c0 6 4 10 10 10h396c6 0 10 -4 10 -10v-57c0 -6 -4 -10 -10 -10h-150c-4 0 -6 -2 -6 -6v-426c0 -6 -4 -10 -10 -10z" />
    <glyph glyph-name="u.sc" horiz-adv-x="562" 
d="M281 -11c-123 0 -205 74 -205 205v315c0 6 4 10 10 10h64c6 0 10 -4 10 -10v-314c0 -84 48 -128 121 -128s121 44 121 128v314c0 6 4 10 10 10h64c6 0 10 -4 10 -10v-315c0 -131 -82 -205 -205 -205z" />
    <glyph glyph-name="v.sc" horiz-adv-x="486" 
d="M272 0h-57c-6 0 -9 4 -11 9l-181 499c-3 7 1 11 7 11h65c7 0 11 -2 13 -10l137 -373h2l132 373c2 8 6 10 13 10h64c6 0 10 -4 7 -11l-180 -499c-2 -5 -6 -9 -11 -9z" />
    <glyph glyph-name="w.sc" horiz-adv-x="708" 
d="M534 0h-51c-6 0 -10 4 -12 10l-116 361h-2l-116 -361c-2 -6 -6 -10 -12 -10h-51c-6 0 -10 4 -12 10l-138 498c-2 7 1 11 9 11h60c7 0 11 -2 13 -10l97 -355h2l114 355c2 7 6 10 11 10h49c5 0 9 -3 11 -10l116 -355h2l94 355c2 8 6 10 13 10h61c7 0 11 -4 8 -11l-138 -498
c-2 -6 -6 -10 -12 -10z" />
    <glyph glyph-name="x.sc" horiz-adv-x="483" 
d="M454 0h-74c-7 0 -11 2 -15 9l-123 180h-1l-123 -180c-5 -7 -8 -9 -15 -9h-73c-7 0 -10 6 -6 12l170 258l-156 237c-3 7 -1 12 6 12h73c7 0 10 -2 15 -8l109 -160h1l110 160c4 6 8 8 15 8h72c7 0 9 -5 6 -12l-155 -237l169 -258c4 -6 1 -12 -5 -12z" />
    <glyph glyph-name="y.sc" horiz-adv-x="452" 
d="M258 0h-64c-6 0 -10 4 -10 10v202l-162 295c-4 6 -1 12 7 12h66c7 0 11 -2 15 -10l117 -203h2l116 203c4 8 7 10 15 10h63c8 0 11 -6 7 -12l-162 -295v-202c0 -6 -4 -10 -10 -10z" />
    <glyph glyph-name="z.sc" horiz-adv-x="463" 
d="M404 0h-347c-6 0 -10 4 -10 10v58c0 4 1 7 4 11l267 361v2h-247c-6 0 -10 4 -10 10v57c0 6 4 10 10 10h333c6 0 10 -4 10 -10v-57c0 -5 -1 -8 -3 -11l-263 -362v-1h256c6 0 10 -4 10 -10v-58c0 -6 -4 -10 -10 -10z" />
    <glyph glyph-name="agrave.sc" horiz-adv-x="528" 
d="M286 597h-47c-9 0 -13 2 -19 10l-92 123c-4 5 -1 10 5 10h66c8 0 14 -3 18 -10l75 -123c3 -6 0 -10 -6 -10zM493 0h-64c-7 0 -10 2 -13 10l-39 102h-226l-39 -102c-3 -8 -6 -10 -13 -10h-64c-7 0 -10 4 -8 10l194 499c2 6 6 10 13 10h62c7 0 11 -4 13 -10l192 -499
c2 -6 -1 -10 -8 -10zM264 405l-84 -218h169l-82 218h-3z" />
    <glyph glyph-name="aacute.sc" horiz-adv-x="528" 
d="M493 0h-64c-7 0 -10 2 -13 10l-39 102h-226l-39 -102c-3 -8 -6 -10 -13 -10h-64c-7 0 -10 4 -8 10l194 499c2 6 6 10 13 10h62c7 0 11 -4 13 -10l192 -499c2 -6 -1 -10 -8 -10zM264 405l-84 -218h169l-82 218h-3zM291 597h-47c-6 0 -9 4 -6 10l76 123c4 7 9 10 17 10h66
c6 0 9 -5 5 -10l-92 -123c-6 -8 -10 -10 -19 -10z" />
    <glyph glyph-name="acircumflex.sc" horiz-adv-x="528" 
d="M493 0h-64c-7 0 -10 2 -13 10l-39 102h-226l-39 -102c-3 -8 -6 -10 -13 -10h-64c-7 0 -10 4 -8 10l194 499c2 6 6 10 13 10h62c7 0 11 -4 13 -10l192 -499c2 -6 -1 -10 -8 -10zM264 405l-84 -218h169l-82 218h-3zM392 597h-45c-8 0 -12 2 -19 10l-63 70h-2l-64 -70
c-7 -8 -10 -10 -19 -10h-45c-6 0 -8 5 -4 10l95 123c5 7 9 10 16 10h43c7 0 11 -3 16 -10l95 -123c4 -5 2 -10 -4 -10z" />
    <glyph glyph-name="atilde.sc" horiz-adv-x="528" 
d="M319 615c-24 0 -42 9 -63 20c-18 11 -33 18 -53 18c-26 0 -44 -14 -63 -32c-4 -4 -8 -2 -8 3v48c0 7 1 11 7 17c18 19 41 32 68 32c25 0 43 -9 63 -20c18 -11 33 -18 53 -18c26 0 44 14 63 32c4 4 8 2 8 -2v-49c0 -7 -1 -10 -7 -17c-18 -19 -41 -32 -68 -32zM493 0h-64
c-7 0 -10 2 -13 10l-39 102h-226l-39 -102c-3 -8 -6 -10 -13 -10h-64c-7 0 -10 4 -8 10l194 499c2 6 6 10 13 10h62c7 0 11 -4 13 -10l192 -499c2 -6 -1 -10 -8 -10zM264 405l-84 -218h169l-82 218h-3z" />
    <glyph glyph-name="adieresis.sc" horiz-adv-x="528" 
d="M493 0h-64c-7 0 -10 2 -13 10l-39 102h-226l-39 -102c-3 -8 -6 -10 -13 -10h-64c-7 0 -10 4 -8 10l194 499c2 6 6 10 13 10h62c7 0 11 -4 13 -10l192 -499c2 -6 -1 -10 -8 -10zM264 405l-84 -218h169l-82 218h-3zM391 627h-59c-6 0 -10 4 -10 10v73c0 6 4 10 10 10h59
c6 0 10 -4 10 -10v-73c0 -6 -4 -10 -10 -10zM194 627h-59c-6 0 -10 4 -10 10v73c0 6 4 10 10 10h59c6 0 10 -4 10 -10v-73c0 -6 -4 -10 -10 -10z" />
    <glyph glyph-name="amacron.sc" horiz-adv-x="528" 
d="M493 0h-64c-7 0 -10 2 -13 10l-39 102h-226l-39 -102c-3 -8 -6 -10 -13 -10h-64c-7 0 -10 4 -8 10l194 499c2 6 6 10 13 10h62c7 0 11 -4 13 -10l192 -499c2 -6 -1 -10 -8 -10zM264 405l-84 -218h169l-82 218h-3zM391 641h-255c-6 0 -10 4 -10 10v45c0 6 4 10 10 10h255
c6 0 10 -4 10 -10v-45c0 -6 -4 -10 -10 -10z" />
    <glyph glyph-name="abreve.sc" horiz-adv-x="528" 
d="M264 601c-78 0 -129 47 -136 113c0 6 3 10 9 10h36c6 0 9 -3 11 -10c11 -34 37 -52 80 -52c42 0 69 18 79 52c2 7 6 10 12 10h35c6 0 9 -4 9 -10c-7 -66 -58 -113 -135 -113zM493 0h-64c-7 0 -10 2 -13 10l-39 102h-226l-39 -102c-3 -8 -6 -10 -13 -10h-64
c-7 0 -10 4 -8 10l194 499c2 6 6 10 13 10h62c7 0 11 -4 13 -10l192 -499c2 -6 -1 -10 -8 -10zM264 405l-84 -218h169l-82 218h-3z" />
    <glyph glyph-name="aring.sc" horiz-adv-x="528" 
d="M264 574c-54 0 -94 41 -94 95s40 95 94 95c53 0 94 -41 94 -95s-41 -95 -94 -95zM264 616c29 0 51 23 51 53s-22 53 -51 53c-30 0 -52 -23 -52 -53s22 -53 52 -53zM493 0h-64c-7 0 -10 2 -13 10l-39 102h-226l-39 -102c-3 -8 -6 -10 -13 -10h-64c-7 0 -10 4 -8 10
l194 499c2 6 6 10 13 10h62c7 0 11 -4 13 -10l192 -499c2 -6 -1 -10 -8 -10zM264 405l-84 -218h169l-82 218h-3z" />
    <glyph glyph-name="aringacute.sc" horiz-adv-x="528" 
d="M291 712h-50c-6 0 -8 5 -4 10l86 106c5 6 10 10 19 10h69c6 0 10 -5 5 -10l-107 -107c-7 -8 -11 -9 -18 -9zM493 0h-64c-7 0 -10 2 -13 10l-40 102h-224l-40 -102c-3 -8 -6 -10 -13 -10h-64c-7 0 -10 4 -8 10l187 481c-27 16 -44 45 -44 81c0 54 40 95 94 95
s94 -41 94 -95c0 -35 -17 -64 -43 -80l186 -482c2 -6 -1 -10 -8 -10zM264 519c30 0 52 23 52 53c0 31 -22 53 -52 53s-51 -22 -51 -53c0 -29 21 -53 51 -53zM263 401l-82 -214h166l-81 214h-3z" />
    <glyph glyph-name="aogonek.sc" horiz-adv-x="529" 
d="M426 -182c-50 0 -83 28 -83 79c0 38 19 69 75 108l-41 107h-226l-39 -102c-3 -8 -6 -10 -13 -10h-64c-7 0 -10 4 -8 10l194 499c2 6 6 10 13 10h63c6 0 10 -4 12 -10l192 -499c2 -5 0 -8 -5 -11c-63 -39 -83 -65 -83 -88c0 -17 10 -27 27 -27c9 0 16 3 26 8
c6 3 11 2 14 -4l17 -35c3 -5 1 -10 -4 -14c-17 -12 -43 -21 -67 -21zM349 187l-82 218h-3l-84 -218h169z" />
    <glyph glyph-name="ae.sc" horiz-adv-x="789" 
d="M724 0h-345c-6 0 -10 4 -10 10v96c0 4 -2 6 -6 6h-187l-58 -102c-4 -7 -8 -10 -15 -10h-69c-7 0 -9 5 -6 10l290 500c3 5 9 9 17 9h389c6 0 10 -4 10 -10v-57c0 -6 -4 -10 -10 -10h-264c-4 0 -6 -2 -6 -6v-128c0 -4 2 -6 6 -6h223c6 0 10 -4 10 -10v-58
c0 -6 -4 -10 -10 -10h-223c-4 0 -6 -2 -6 -6v-134c0 -4 2 -6 6 -6h264c6 0 10 -4 10 -10v-58c0 -6 -4 -10 -10 -10zM366 442l-147 -255h144c4 0 6 2 6 6v249h-3z" />
    <glyph glyph-name="aeacute.sc" horiz-adv-x="789" 
d="M724 0h-345c-6 0 -10 4 -10 10v96c0 4 -2 6 -6 6h-187l-58 -102c-4 -7 -8 -10 -15 -10h-69c-7 0 -9 5 -6 10l290 500c3 5 9 9 17 9h389c6 0 10 -4 10 -10v-57c0 -6 -4 -10 -10 -10h-264c-4 0 -6 -2 -6 -6v-128c0 -4 2 -6 6 -6h223c6 0 10 -4 10 -10v-58
c0 -6 -4 -10 -10 -10h-223c-4 0 -6 -2 -6 -6v-134c0 -4 2 -6 6 -6h264c6 0 10 -4 10 -10v-58c0 -6 -4 -10 -10 -10zM366 442l-147 -255h144c4 0 6 2 6 6v249h-3zM430 597h-47c-6 0 -9 4 -6 10l76 123c4 7 9 10 17 10h66c6 0 9 -5 5 -10l-92 -123c-6 -8 -10 -10 -19 -10z" />
    <glyph glyph-name="cacute.sc" horiz-adv-x="489" 
d="M263 597h-47c-6 0 -9 4 -6 10l76 123c4 7 9 10 17 10h66c6 0 9 -5 5 -10l-92 -123c-6 -8 -10 -10 -19 -10zM264 -11c-96 0 -167 49 -195 135c-10 32 -15 70 -15 136c0 65 5 104 15 135c28 87 99 135 195 135c76 0 144 -34 180 -109c3 -6 2 -11 -4 -14l-55 -27
c-6 -3 -11 -1 -14 4c-23 44 -59 68 -107 68c-53 0 -95 -25 -112 -79c-8 -24 -12 -51 -12 -113c0 -63 4 -90 12 -114c17 -53 59 -79 112 -79c48 1 84 24 107 68c3 5 8 8 14 5l55 -27c6 -3 7 -9 4 -14c-36 -76 -104 -110 -180 -110z" />
    <glyph glyph-name="ccircumflex.sc" horiz-adv-x="489" 
d="M264 -11c-96 0 -167 49 -195 135c-10 32 -15 70 -15 136c0 65 5 104 15 135c28 87 99 135 195 135c76 0 144 -34 180 -109c3 -6 2 -11 -4 -14l-55 -27c-6 -3 -11 -1 -14 4c-23 44 -59 68 -107 68c-53 0 -95 -25 -112 -79c-8 -24 -12 -51 -12 -113c0 -63 4 -90 12 -114
c17 -53 59 -79 112 -79c48 1 84 24 107 68c3 5 8 8 14 5l55 -27c6 -3 7 -9 4 -14c-36 -76 -104 -110 -180 -110zM389 597h-45c-8 0 -12 2 -19 10l-63 70h-2l-64 -70c-7 -8 -10 -10 -19 -10h-45c-6 0 -8 5 -4 10l95 123c5 7 9 10 16 10h43c7 0 11 -3 16 -10l95 -123
c4 -5 2 -10 -4 -10z" />
    <glyph glyph-name="ccaron.sc" horiz-adv-x="489" 
d="M280 597h-43c-7 0 -11 2 -16 9l-95 124c-4 5 -2 10 4 10h45c9 0 12 -2 19 -10l64 -71h2l63 71c7 8 11 10 19 10h45c6 0 8 -5 4 -10l-95 -124c-5 -7 -9 -9 -16 -9zM264 -11c-96 0 -167 49 -195 135c-10 32 -15 70 -15 136c0 65 5 104 15 135c28 87 99 135 195 135
c76 0 144 -34 180 -109c3 -6 2 -11 -4 -14l-55 -27c-6 -3 -11 -1 -14 4c-23 44 -59 68 -107 68c-53 0 -95 -25 -112 -79c-8 -24 -12 -51 -12 -113c0 -63 4 -90 12 -114c17 -53 59 -79 112 -79c48 1 84 24 107 68c3 5 8 8 14 5l55 -27c6 -3 7 -9 4 -14
c-36 -76 -104 -110 -180 -110z" />
    <glyph glyph-name="cdotaccent.sc" horiz-adv-x="489" 
d="M295 627h-69c-6 0 -10 4 -10 10v73c0 6 4 10 10 10h69c6 0 10 -4 10 -10v-73c0 -6 -4 -10 -10 -10zM264 -11c-96 0 -167 49 -195 135c-10 32 -15 70 -15 136c0 65 5 104 15 135c28 87 99 135 195 135c76 0 144 -34 180 -109c3 -6 2 -11 -4 -14l-55 -27
c-6 -3 -11 -1 -14 4c-23 44 -59 68 -107 68c-53 0 -95 -25 -112 -79c-8 -24 -12 -51 -12 -113c0 -63 4 -90 12 -114c17 -53 59 -79 112 -79c48 1 84 24 107 68c3 5 8 8 14 5l55 -27c6 -3 7 -9 4 -14c-36 -76 -104 -110 -180 -110z" />
    <glyph glyph-name="ccedilla.sc" horiz-adv-x="489" 
d="M232 -152h-55c-6 0 -9 4 -7 10l54 135c-76 11 -131 57 -155 131c-10 32 -15 70 -15 136c0 65 5 104 15 135c28 87 99 135 195 135c76 0 144 -34 180 -109c3 -6 2 -11 -4 -14l-55 -27c-6 -3 -11 -1 -14 4c-23 44 -59 68 -107 68c-53 0 -95 -25 -112 -79
c-8 -24 -12 -51 -12 -113c0 -63 4 -90 12 -114c17 -53 59 -79 112 -79c48 1 84 24 107 68c3 5 8 8 14 5l55 -27c6 -3 7 -9 4 -14c-32 -67 -88 -101 -153 -108l-43 -133c-2 -7 -7 -10 -16 -10z" />
    <glyph glyph-name="dcaron.sc" horiz-adv-x="548" 
d="M288 0h-195c-6 0 -10 4 -10 10v499c0 6 4 10 10 10h195c96 0 162 -40 187 -115c8 -27 14 -56 14 -144c0 -89 -6 -118 -14 -144c-25 -76 -91 -116 -187 -116zM267 78c66 0 108 17 126 70c7 19 10 41 10 112c0 70 -3 93 -10 111c-18 53 -60 71 -126 71h-94
c-4 0 -6 -2 -6 -6v-352c0 -4 2 -6 6 -6h94zM285 597h-43c-7 0 -11 2 -16 9l-95 124c-4 5 -2 10 4 10h45c9 0 12 -2 19 -10l64 -71h2l63 71c7 8 11 10 19 10h45c6 0 8 -5 4 -10l-95 -124c-5 -7 -9 -9 -16 -9z" />
    <glyph glyph-name="dcroat.sc" horiz-adv-x="548" 
d="M288 0h-195c-6 0 -10 4 -10 10v211c0 4 -2 6 -6 6h-30c-6 0 -10 4 -10 10v52c0 6 4 10 10 10h30c4 0 6 2 6 6v204c0 6 4 10 10 10h195c96 0 162 -40 187 -115c8 -27 14 -56 14 -144c0 -89 -6 -118 -14 -144c-25 -76 -91 -116 -187 -116zM267 78c66 0 108 17 126 70
c7 19 10 41 10 112c0 70 -3 93 -10 111c-18 53 -60 71 -126 71h-94c-4 0 -6 -2 -6 -6v-131c0 -4 2 -6 6 -6h82c6 0 10 -4 10 -10v-52c0 -6 -4 -10 -10 -10h-82c-4 0 -6 -2 -6 -6v-137c0 -4 2 -6 6 -6h94z" />
    <glyph glyph-name="eth.sc" horiz-adv-x="548" 
d="M288 0h-195c-6 0 -10 4 -10 10v211c0 4 -2 6 -6 6h-30c-6 0 -10 4 -10 10v52c0 6 4 10 10 10h30c4 0 6 2 6 6v204c0 6 4 10 10 10h195c96 0 162 -40 187 -115c8 -27 14 -56 14 -144c0 -89 -6 -118 -14 -144c-25 -76 -91 -116 -187 -116zM267 78c66 0 108 17 126 70
c7 19 10 41 10 112c0 70 -3 93 -10 111c-18 53 -60 71 -126 71h-94c-4 0 -6 -2 -6 -6v-131c0 -4 2 -6 6 -6h82c6 0 10 -4 10 -10v-52c0 -6 -4 -10 -10 -10h-82c-4 0 -6 -2 -6 -6v-137c0 -4 2 -6 6 -6h94z" />
    <glyph glyph-name="egrave.sc" horiz-adv-x="503" 
d="M306 597h-47c-9 0 -13 2 -19 10l-92 123c-4 5 -1 10 5 10h66c8 0 14 -3 18 -10l75 -123c3 -6 0 -10 -6 -10zM438 0h-345c-6 0 -10 4 -10 10v499c0 6 4 10 10 10h345c6 0 10 -4 10 -10v-57c0 -6 -4 -10 -10 -10h-265c-4 0 -6 -2 -6 -6v-128c0 -4 2 -6 6 -6h224
c6 0 10 -4 10 -10v-58c0 -6 -4 -10 -10 -10h-224c-4 0 -6 -2 -6 -6v-134c0 -4 2 -6 6 -6h265c6 0 10 -4 10 -10v-58c0 -6 -4 -10 -10 -10z" />
    <glyph glyph-name="eacute.sc" horiz-adv-x="503" 
d="M263 597h-47c-6 0 -9 4 -6 10l76 123c4 7 9 10 17 10h66c6 0 9 -5 5 -10l-92 -123c-6 -8 -10 -10 -19 -10zM438 0h-345c-6 0 -10 4 -10 10v499c0 6 4 10 10 10h345c6 0 10 -4 10 -10v-57c0 -6 -4 -10 -10 -10h-265c-4 0 -6 -2 -6 -6v-128c0 -4 2 -6 6 -6h224
c6 0 10 -4 10 -10v-58c0 -6 -4 -10 -10 -10h-224c-4 0 -6 -2 -6 -6v-134c0 -4 2 -6 6 -6h265c6 0 10 -4 10 -10v-58c0 -6 -4 -10 -10 -10z" />
    <glyph glyph-name="ecircumflex.sc" horiz-adv-x="503" 
d="M438 0h-345c-6 0 -10 4 -10 10v499c0 6 4 10 10 10h345c6 0 10 -4 10 -10v-57c0 -6 -4 -10 -10 -10h-265c-4 0 -6 -2 -6 -6v-128c0 -4 2 -6 6 -6h224c6 0 10 -4 10 -10v-58c0 -6 -4 -10 -10 -10h-224c-4 0 -6 -2 -6 -6v-134c0 -4 2 -6 6 -6h265c6 0 10 -4 10 -10v-58
c0 -6 -4 -10 -10 -10zM393 597h-45c-8 0 -12 2 -19 10l-63 70h-2l-64 -70c-7 -8 -10 -10 -19 -10h-45c-6 0 -8 5 -4 10l95 123c5 7 9 10 16 10h43c7 0 11 -3 16 -10l95 -123c4 -5 2 -10 -4 -10z" />
    </font>
</defs>
</svg>
